  0
SECTION
  2
HEADER
  9
$ACADVER
  1
AC1015
  9
$ACADMAINTVER
 70
    20
  9
$DWGCODEPAGE
  3
ANSI_1252
  9
$INSBASE
 10
0.0
 20
0.0
 30
0.0
  9
$EXTMIN
 10
-0.0510810213818331
 20
-0.0290002045687743
 30
-0.0000000349181948
  9
$EXTMAX
 10
297.0235949964733
 20
210.0139355694787
 30
0.0000000814935747
  9
$LIMMIN
 10
0.0000011707487033
 20
0.0000000000000284
  9
$LIMMAX
 10
297.0000011707487
 20
210.000000569727
  9
$ORTHOMODE
 70
     0
  9
$REGENMODE
 70
     1
  9
$FILLMODE
 70
     1
  9
$QTEXTMODE
 70
     0
  9
$MIRRTEXT
 70
     0
  9
$LTSCALE
 40
10.0
  9
$ATTMODE
 70
     1
  9
$TEXTSIZE
 40
2.5
  9
$TRACEWID
 40
1.0
  9
$TEXTSTYLE
  7
RomanS
  9
$CLAYER
  8
Bemaßung
  9
$CELTYPE
  6
ByLayer
  9
$CECOLOR
 62
   256
  9
$CELTSCALE
 40
1.0
  9
$DISPSILH
 70
     0
  9
$DIMSCALE
 40
1.0
  9
$DIMASZ
 40
2.5
  9
$DIMEXO
 40
0.625
  9
$DIMDLI
 40
3.75
  9
$DIMRND
 40
0.0
  9
$DIMDLE
 40
0.0
  9
$DIMEXE
 40
1.25
  9
$DIMTP
 40
0.0
  9
$DIMTM
 40
0.0
  9
$DIMTXT
 40
2.5
  9
$DIMCEN
 40
2.5
  9
$DIMTSZ
 40
0.0
  9
$DIMTOL
 70
     0
  9
$DIMLIM
 70
     0
  9
$DIMTIH
 70
     0
  9
$DIMTOH
 70
     0
  9
$DIMSE1
 70
     0
  9
$DIMSE2
 70
     0
  9
$DIMTAD
 70
     1
  9
$DIMZIN
 70
     8
  9
$DIMBLK
  1
Oblique
  9
$DIMASO
 70
     1
  9
$DIMSHO
 70
     1
  9
$DIMPOST
  1

  9
$DIMAPOST
  1

  9
$DIMALT
 70
     0
  9
$DIMALTD
 70
     3
  9
$DIMALTF
 40
0.03937007874016
  9
$DIMLFAC
 40
1.0
  9
$DIMTOFL
 70
     1
  9
$DIMTVP
 40
0.0
  9
$DIMTIX
 70
     0
  9
$DIMSOXD
 70
     0
  9
$DIMSAH
 70
     0
  9
$DIMBLK1
  1

  9
$DIMBLK2
  1

  9
$DIMSTYLE
  2
IDEAL Holz
  9
$DIMCLRD
 70
     0
  9
$DIMCLRE
 70
     0
  9
$DIMCLRT
 70
     0
  9
$DIMTFAC
 40
1.0
  9
$DIMGAP
 40
0.625
  9
$DIMJUST
 70
     0
  9
$DIMSD1
 70
     0
  9
$DIMSD2
 70
     0
  9
$DIMTOLJ
 70
     0
  9
$DIMTZIN
 70
     8
  9
$DIMALTZ
 70
     0
  9
$DIMALTTZ
 70
     0
  9
$DIMUPT
 70
     0
  9
$DIMDEC
 70
     1
  9
$DIMTDEC
 70
     1
  9
$DIMALTU
 70
     2
  9
$DIMALTTD
 70
     3
  9
$DIMTXSTY
  7
RomanS
  9
$DIMAUNIT
 70
     0
  9
$DIMADEC
 70
     0
  9
$DIMALTRND
 40
0.0
  9
$DIMAZIN
 70
     0
  9
$DIMDSEP
 70
    44
  9
$DIMATFIT
 70
     3
  9
$DIMFRAC
 70
     0
  9
$DIMLDRBLK
  1
Oblique
  9
$DIMLUNIT
 70
     2
  9
$DIMLWD
 70
    -2
  9
$DIMLWE
 70
    -2
  9
$DIMTMOVE
 70
     0
  9
$LUNITS
 70
     2
  9
$LUPREC
 70
     4
  9
$SKETCHINC
 40
1.0
  9
$FILLETRAD
 40
0.0
  9
$AUNITS
 70
     0
  9
$AUPREC
 70
     0
  9
$MENU
  1
.
  9
$ELEVATION
 40
0.0
  9
$PELEVATION
 40
0.0
  9
$THICKNESS
 40
0.0
  9
$LIMCHECK
 70
     0
  9
$CHAMFERA
 40
0.0
  9
$CHAMFERB
 40
0.0
  9
$CHAMFERC
 40
0.0
  9
$CHAMFERD
 40
0.0
  9
$SKPOLY
 70
     0
  9
$TDCREATE
 40
2454531.576644907
  9
$TDUCREATE
 40
2454531.534978241
  9
$TDUPDATE
 40
2456632.341888519
  9
$TDUUPDATE
 40
2456632.300221852
  9
$TDINDWG
 40
0.1010439352
  9
$TDUSRTIMER
 40
0.1010389468
  9
$USRTIMER
 70
     1
  9
$ANGBASE
 50
0.0
  9
$ANGDIR
 70
     0
  9
$PDMODE
 70
     0
  9
$PDSIZE
 40
0.0
  9
$PLINEWID
 40
0.0
  9
$SPLFRAME
 70
     0
  9
$SPLINETYPE
 70
     6
  9
$SPLINESEGS
 70
     8
  9
$HANDSEED
  5
2960
  9
$SURFTAB1
 70
     6
  9
$SURFTAB2
 70
     6
  9
$SURFTYPE
 70
     6
  9
$SURFU
 70
     6
  9
$SURFV
 70
     6
  9
$UCSBASE
  2

  9
$UCSNAME
  2

  9
$UCSORG
 10
0.0
 20
0.0
 30
0.0
  9
$UCSXDIR
 10
1.0
 20
0.0
 30
0.0
  9
$UCSYDIR
 10
0.0
 20
1.0
 30
0.0
  9
$UCSORTHOREF
  2

  9
$UCSORTHOVIEW
 70
     0
  9
$UCSORGTOP
 10
0.0
 20
0.0
 30
0.0
  9
$UCSORGBOTTOM
 10
0.0
 20
0.0
 30
0.0
  9
$UCSORGLEFT
 10
0.0
 20
0.0
 30
0.0
  9
$UCSORGRIGHT
 10
0.0
 20
0.0
 30
0.0
  9
$UCSORGFRONT
 10
0.0
 20
0.0
 30
0.0
  9
$UCSORGBACK
 10
0.0
 20
0.0
 30
0.0
  9
$PUCSBASE
  2

  9
$PUCSNAME
  2

  9
$PUCSORG
 10
0.0
 20
0.0
 30
0.0
  9
$PUCSXDIR
 10
1.0
 20
0.0
 30
0.0
  9
$PUCSYDIR
 10
0.0
 20
1.0
 30
0.0
  9
$PUCSORTHOREF
  2

  9
$PUCSORTHOVIEW
 70
     0
  9
$PUCSORGTOP
 10
0.0
 20
0.0
 30
0.0
  9
$PUCSORGBOTTOM
 10
0.0
 20
0.0
 30
0.0
  9
$PUCSORGLEFT
 10
0.0
 20
0.0
 30
0.0
  9
$PUCSORGRIGHT
 10
0.0
 20
0.0
 30
0.0
  9
$PUCSORGFRONT
 10
0.0
 20
0.0
 30
0.0
  9
$PUCSORGBACK
 10
0.0
 20
0.0
 30
0.0
  9
$USERI1
 70
     0
  9
$USERI2
 70
     0
  9
$USERI3
 70
     0
  9
$USERI4
 70
     0
  9
$USERI5
 70
     0
  9
$USERR1
 40
0.0
  9
$USERR2
 40
0.0
  9
$USERR3
 40
0.0
  9
$USERR4
 40
0.0
  9
$USERR5
 40
0.0
  9
$WORLDVIEW
 70
     1
  9
$SHADEDGE
 70
     3
  9
$SHADEDIF
 70
    70
  9
$TILEMODE
 70
     1
  9
$MAXACTVP
 70
    64
  9
$PINSBASE
 10
0.0
 20
0.0
 30
0.0
  9
$PLIMCHECK
 70
     0
  9
$PEXTMIN
 10
-6.000000278478751
 20
-6.000000213669252
 30
0.0
  9
$PEXTMAX
 10
291.0318416794908
 20
203.9733271716299
 30
0.0
  9
$PLIMMIN
 10
-5.999987840652463
 20
-5.999999999999997
  9
$PLIMMAX
 10
291.0318419933318
 20
203.9733276367186
  9
$UNITMODE
 70
     0
  9
$VISRETAIN
 70
     1
  9
$PLINEGEN
 70
     0
  9
$PSLTSCALE
 70
     1
  9
$TREEDEPTH
 70
  3020
  9
$CMLSTYLE
  2
Standard
  9
$CMLJUST
 70
     0
  9
$CMLSCALE
 40
20.0
  9
$PROXYGRAPHICS
 70
     1
  9
$MEASUREMENT
 70
     1
  9
$CELWEIGHT
370
    -1
  9
$ENDCAPS
280
     0
  9
$JOINSTYLE
280
     0
  9
$LWDISPLAY
290
     0
  9
$INSUNITS
 70
     4
  9
$HYPERLINKBASE
  1

  9
$STYLESHEET
  1

  9
$XEDIT
290
     1
  9
$CEPSNTYPE
380
     0
  9
$PSTYLEMODE
290
     1
  9
$FINGERPRINTGUID
  2
{9A03CA01-DB2D-4F50-BDBF-3A55C281F4ED}
  9
$VERSIONGUID
  2
{0052D126-9ECB-450E-B359-2631EF69BB73}
  9
$EXTNAMES
290
     1
  9
$PSVPSCALE
 40
1.0
  9
$OLESTARTUP
290
     0
  0
ENDSEC
  0
SECTION
  2
CLASSES
  0
CLASS
  1
ACDBDICTIONARYWDFLT
  2
AcDbDictionaryWithDefault
  3
ObjectDBX Classes
 90
        0
280
     0
281
     0
  0
CLASS
  1
DICTIONARYVAR
  2
AcDbDictionaryVar
  3
ObjectDBX Classes
 90
        0
280
     0
281
     0
  0
CLASS
  1
TABLESTYLE
  2
AcDbTableStyle
  3
ObjectDBX Classes
 90
     4095
280
     0
281
     0
  0
CLASS
  1
MATERIAL
  2
AcDbMaterial
  3
ObjectDBX Classes
 90
     1153
280
     0
281
     0
  0
CLASS
  1
VISUALSTYLE
  2
AcDbVisualStyle
  3
ObjectDBX Classes
 90
     4095
280
     0
281
     0
  0
CLASS
  1
SORTENTSTABLE
  2
AcDbSortentsTable
  3
ObjectDBX Classes
 90
        0
280
     0
281
     0
  0
CLASS
  1
DIMASSOC
  2
AcDbDimAssoc
  3
"AcDbDimAssoc|Product Desc:     AcDim ARX App For Dimension|Company:          Autodesk, Inc.|WEB Address:      www.autodesk.com"
 90
        0
280
     0
281
     0
  0
CLASS
  1
ACAD_EVALUATION_GRAPH
  2
AcDbEvalGraph
  3
ObjectDBX Classes
 90
    33921
280
     0
281
     0
  0
CLASS
  1
ACAECUSTOBJ
  2
AcAeEditorObj
  3
AcAeEditorObj
 90
    33792
280
     0
281
     0
  0
CLASS
  1
ACDB_DYNAMICBLOCKPURGEPREVENTER_VERSION
  2
AcDbDynamicBlockPurgePreventer
  3
ObjectDBX Classes
 90
    33921
280
     0
281
     0
  0
CLASS
  1
ACDB_BLOCKREPRESENTATION_DATA
  2
AcDbBlockRepresentationData
  3
ObjectDBX Classes
 90
    33921
280
     0
281
     0
  0
CLASS
  1
SCALE
  2
AcDbScale
  3
ObjectDBX Classes
 90
     1153
280
     0
281
     0
  0
CLASS
  1
MLEADERSTYLE
  2
AcDbMLeaderStyle
  3
ACDB_MLEADERSTYLE_CLASS
 90
     4095
280
     0
281
     0
  0
CLASS
  1
CELLSTYLEMAP
  2
AcDbCellStyleMap
  3
ObjectDBX Classes
 90
     1152
280
     0
281
     0
  0
CLASS
  1
ACDBPLACEHOLDER
  2
AcDbPlaceHolder
  3
ObjectDBX Classes
 90
        0
280
     0
281
     0
  0
CLASS
  1
LAYOUT
  2
AcDbLayout
  3
ObjectDBX Classes
 90
        0
280
     0
281
     0
  0
CLASS
  1
EXACXREFPANELOBJECT
  2
ExAcXREFPanelObject
  3
EXAC_ESW
 90
     1025
280
     0
281
     0
  0
CLASS
  1
NPOCOLLECTION
  2
AcDbImpNonPersistentObjectsCollection
  3
ObjectDBX Classes
 90
     1153
280
     0
281
     0
  0
ENDSEC
  0
SECTION
  2
TABLES
  0
TABLE
  2
VPORT
  5
8
330
0
100
AcDbSymbolTable
 70
     1
  0
VPORT
  5
EA
330
8
100
AcDbSymbolTableRecord
100
AcDbViewportTableRecord
  2
*Active
 70
     0
 10
0.0
 20
0.0
 11
1.0
 21
1.0
 12
148.4862569875457
 22
104.9924676824549
 13
0.0
 23
0.0
 14
10.0
 24
10.0
 15
10.0
 25
10.0
 16
0.0
 26
0.0
 36
1.0
 17
0.0
 27
0.0
 37
0.0
 40
211.8433037949679
 41
1.849785407725321
 42
50.0
 43
0.0
 44
0.0
 50
0.0
 51
0.0
 71
     0
 72
  1000
 73
     1
 74
     3
 75
     0
 76
     0
 77
     0
 78
     0
281
     0
 65
     1
110
0.0
120
0.0
130
0.0
111
1.0
121
0.0
131
0.0
112
0.0
122
1.0
132
0.0
 79
     0
146
0.0
1001
ACAD_NAV_VCDISPLAY
1070
     3
  0
ENDTAB
  0
TABLE
  2
LTYPE
  5
5
330
0
100
AcDbSymbolTable
 70
     3
  0
LTYPE
  5
14
330
5
100
AcDbSymbolTableRecord
100
AcDbLinetypeTableRecord
  2
ByBlock
 70
     0
  3

 72
    65
 73
     0
 40
0.0
  0
LTYPE
  5
15
330
5
100
AcDbSymbolTableRecord
100
AcDbLinetypeTableRecord
  2
ByLayer
 70
     0
  3

 72
    65
 73
     0
 40
0.0
  0
LTYPE
  5
16
330
5
100
AcDbSymbolTableRecord
100
AcDbLinetypeTableRecord
  2
Continuous
 70
     0
  3
Solid line
 72
    65
 73
     0
 40
0.0
  0
LTYPE
  5
1EB5
330
5
100
AcDbSymbolTableRecord
100
AcDbLinetypeTableRecord
  2
STRICHPUNKT
 70
     0
  3
Strichpunkt __ . __ . __ . __ . __ . __ . __ . 
 72
    65
 73
     4
 40
1.0
 49
0.5
 74
     0
 49
-0.25
 74
     0
 49
0.0
 74
     0
 49
-0.25
 74
     0
  0
LTYPE
  5
22E9
330
5
100
AcDbSymbolTableRecord
100
AcDbLinetypeTableRecord
  2
VERDECKT
 70
     0
  3
Verdeckt __ __ __ __ __ __ __ __ __ __ __ __ __
 72
    65
 73
     2
 40
0.375
 49
0.25
 74
     0
 49
-0.125
 74
     0
  0
ENDTAB
  0
TABLE
  2
LAYER
  5
2
102
{ACAD_XDICTIONARY
360
120
102
}
330
0
100
AcDbSymbolTable
 70
     8
  0
LAYER
  5
10
102
{ACAD_XDICTIONARY
360
28B7
102
}
330
2
100
AcDbSymbolTableRecord
100
AcDbLayerTableRecord
  2
0
 70
     0
 62
     7
  6
Continuous
370
    -3
390
F
  0
LAYER
  5
12AC
330
2
100
AcDbSymbolTableRecord
100
AcDbLayerTableRecord
  2
Defpoints
 70
     0
 62
     7
  6
Continuous
290
     0
370
    -3
390
F
  0
LAYER
  5
1EB9
102
{ACAD_XDICTIONARY
360
28B9
102
}
330
2
100
AcDbSymbolTableRecord
100
AcDbLayerTableRecord
  2
Sohlbank
 70
     0
 62
     5
  6
Continuous
370
    -3
390
F
1001
AcAecLayerStandard
1000

1000

  0
LAYER
  5
1EBC
102
{ACAD_XDICTIONARY
360
28BB
102
}
330
2
100
AcDbSymbolTableRecord
100
AcDbLayerTableRecord
  2
Schlitz-Zapfen
 70
     0
 62
   253
  6
STRICHPUNKT
370
    -3
390
F
1001
AcAecLayerStandard
1000

1000

  0
LAYER
  5
1EBD
102
{ACAD_XDICTIONARY
360
28BD
102
}
330
2
100
AcDbSymbolTableRecord
100
AcDbLayerTableRecord
  2
Bemaßung
 70
     0
 62
     1
  6
Continuous
370
    -3
390
F
  0
LAYER
  5
1EBE
102
{ACAD_XDICTIONARY
360
28BF
102
}
330
2
100
AcDbSymbolTableRecord
100
AcDbLayerTableRecord
  2
Schraffur
 70
     0
 62
   251
  6
Continuous
370
    -3
390
F
1001
AcAecLayerStandard
1000

1000

  0
LAYER
  5
22EA
102
{ACAD_XDICTIONARY
360
28C1
102
}
330
2
100
AcDbSymbolTableRecord
100
AcDbLayerTableRecord
  2
Blendrahmen
 70
     0
 62
     5
  6
Continuous
370
    -3
390
F
1001
AcAecLayerStandard
1000

1000

  0
LAYER
  5
22EB
102
{ACAD_XDICTIONARY
360
28C3
102
}
330
2
100
AcDbSymbolTableRecord
100
AcDbLayerTableRecord
  2
Fräsung
 70
     0
 62
   252
  6
VERDECKT
370
    -3
390
F
1001
AcAecLayerStandard
1000

1000

  0
ENDTAB
  0
TABLE
  2
STYLE
  5
3
330
0
100
AcDbSymbolTable
 70
     2
  0
STYLE
  5
11
330
3
100
AcDbSymbolTableRecord
100
AcDbTextStyleTableRecord
  2
Standard
 70
     0
 40
0.0
 41
1.0
 50
0.0
 71
     0
 42
2.5
  3
txt
  4

  0
STYLE
  5
11D
330
3
100
AcDbSymbolTableRecord
100
AcDbTextStyleTableRecord
  2
RomanS
 70
     0
 40
0.0
 41
0.7
 50
0.0
 71
     0
 42
2.5
  3
romans.shx
  4

  0
ENDTAB
  0
TABLE
  2
VIEW
  5
6
330
0
100
AcDbSymbolTable
 70
     0
  0
ENDTAB
  0
TABLE
  2
UCS
  5
7
330
0
100
AcDbSymbolTable
 70
     0
  0
ENDTAB
  0
TABLE
  2
APPID
  5
9
330
0
100
AcDbSymbolTable
 70
    13
  0
APPID
  5
12
330
9
100
AcDbSymbolTableRecord
100
AcDbRegAppTableRecord
  2
ACAD
 70
     0
  0
APPID
  5
9E
330
9
100
AcDbSymbolTableRecord
100
AcDbRegAppTableRecord
  2
ACAD_PSEXT
 70
     0
  0
APPID
  5
1B4
330
9
100
AcDbSymbolTableRecord
100
AcDbRegAppTableRecord
  2
AcAecLayerStandard
 70
     0
  0
APPID
  5
3F2
330
9
100
AcDbSymbolTableRecord
100
AcDbRegAppTableRecord
  2
AcDbBlockRepETag
 70
     0
  0
APPID
  5
722
330
9
100
AcDbSymbolTableRecord
100
AcDbRegAppTableRecord
  2
ACAD_EXEMPT_FROM_CAD_STANDARDS
 70
     0
  0
APPID
  5
12AF
330
9
100
AcDbSymbolTableRecord
100
AcDbRegAppTableRecord
  2
AcDbDynamicBlockGUID
 70
     0
  0
APPID
  5
17A4
330
9
100
AcDbSymbolTableRecord
100
AcDbRegAppTableRecord
  2
ACAUTHENVIRON
 70
     0
  0
APPID
  5
17AA
330
9
100
AcDbSymbolTableRecord
100
AcDbRegAppTableRecord
  2
AcDbDynamicBlockTrueName
 70
     0
  0
APPID
  5
186B
330
9
100
AcDbSymbolTableRecord
100
AcDbRegAppTableRecord
  2
AcDbBlockRepBTag
 70
     0
  0
APPID
  5
275D
330
9
100
AcDbSymbolTableRecord
100
AcDbRegAppTableRecord
  2
ACAD_NAV_VCDISPLAY
 70
     0
  0
APPID
  5
283E
330
9
100
AcDbSymbolTableRecord
100
AcDbRegAppTableRecord
  2
GradientColor1ACI
 70
     0
  0
APPID
  5
283F
330
9
100
AcDbSymbolTableRecord
100
AcDbRegAppTableRecord
  2
GradientColor2ACI
 70
     0
  0
APPID
  5
290D
330
9
100
AcDbSymbolTableRecord
100
AcDbRegAppTableRecord
  2
ACAD_MLEADERVER
 70
     0
  0
ENDTAB
  0
TABLE
  2
DIMSTYLE
  5
A
330
0
100
AcDbSymbolTable
 70
     2
100
AcDbDimStyleTable
 71
     1
340
142C
  0
DIMSTYLE
105
11E
330
A
100
AcDbSymbolTableRecord
100
AcDbDimStyleTableRecord
  2
Standard
 70
     0
 41
0.5
 42
1.0
 43
2.0
 44
0.2
140
1.5
147
1.0
172
     1
271
     1
272
     1
340
11
371
     5
372
     5
  0
DIMSTYLE
105
142C
102
{ACAD_REACTORS
330
1F3D
330
1F40
330
1F41
330
1F42
330
1F43
330
1F44
330
1F45
330
1F46
330
1F47
330
1F48
330
26CA
330
2767
330
277F
330
27C5
102
}
330
A
100
AcDbSymbolTableRecord
100
AcDbDimStyleTableRecord
  2
IDEAL Holz
 70
     0
 41
2.5
 42
0.625
 43
3.75
 44
1.25
 73
     0
 74
     0
 77
     1
 78
     8
140
2.5
141
2.5
143
0.03937007874016
147
0.625
171
     3
172
     1
271
     1
272
     1
274
     3
278
    44
283
     0
284
     8
340
11D
341
117
342
117
  0
ENDTAB
  0
TABLE
  2
BLOCK_RECORD
  5
1
330
0
100
AcDbSymbolTable
 70
    28
  0
BLOCK_RECORD
  5
1F
102
{ACAD_XDICTIONARY
360
732
102
}
330
1
100
AcDbSymbolTableRecord
100
AcDbBlockTableRecord
  2
*Model_Space
340
22
  0
BLOCK_RECORD
  5
1CC3
330
1
100
AcDbSymbolTableRecord
100
AcDbBlockTableRecord
  2
*Paper_Space
340
1CC8
  0
BLOCK_RECORD
  5
117
330
1
100
AcDbSymbolTableRecord
100
AcDbBlockTableRecord
  2
_Oblique
340
0
102
{BLKREFS
331
279B
331
279C
331
27A4
331
27A5
331
21C2
331
21C3
331
21CB
331
21CC
331
21D4
331
21D5
331
21DD
331
21DE
331
21E6
331
21E7
331
21EF
331
21F0
331
21F8
331
21F9
331
2201
331
2202
331
2509
331
250A
331
2512
331
2513
331
251B
331
251C
331
2524
331
2525
331
2547
331
2548
331
2577
331
2578
331
259B
331
259C
331
25B6
331
25B7
331
25EB
331
25EC
331
25F4
331
25F5
331
2621
331
2622
331
262A
331
262B
331
27B6
331
27B7
331
27BF
331
27C0
331
284E
331
284F
331
2856
102
}
  0
BLOCK_RECORD
  5
1F60
330
1
100
AcDbSymbolTableRecord
100
AcDbBlockTableRecord
  2
*D1
340
0
  0
BLOCK_RECORD
  5
1F6C
330
1
100
AcDbSymbolTableRecord
100
AcDbBlockTableRecord
  2
*D2
340
0
  0
BLOCK_RECORD
  5
1F78
330
1
100
AcDbSymbolTableRecord
100
AcDbBlockTableRecord
  2
*D3
340
0
  0
BLOCK_RECORD
  5
1F84
330
1
100
AcDbSymbolTableRecord
100
AcDbBlockTableRecord
  2
*D4
340
0
  0
BLOCK_RECORD
  5
1F90
330
1
100
AcDbSymbolTableRecord
100
AcDbBlockTableRecord
  2
*D5
340
0
  0
BLOCK_RECORD
  5
1F9C
330
1
100
AcDbSymbolTableRecord
100
AcDbBlockTableRecord
  2
*D6
340
0
  0
BLOCK_RECORD
  5
1FA8
330
1
100
AcDbSymbolTableRecord
100
AcDbBlockTableRecord
  2
*D7
340
0
  0
BLOCK_RECORD
  5
1FB4
330
1
100
AcDbSymbolTableRecord
100
AcDbBlockTableRecord
  2
*D8
340
0
  0
BLOCK_RECORD
  5
1FC0
330
1
100
AcDbSymbolTableRecord
100
AcDbBlockTableRecord
  2
*D9
340
0
  0
BLOCK_RECORD
  5
1FCC
330
1
100
AcDbSymbolTableRecord
100
AcDbBlockTableRecord
  2
*D10
340
0
  0
BLOCK_RECORD
  5
2479
330
1
100
AcDbSymbolTableRecord
100
AcDbBlockTableRecord
  2
*D11
340
0
  0
BLOCK_RECORD
  5
2491
330
1
100
AcDbSymbolTableRecord
100
AcDbBlockTableRecord
  2
*D12
340
0
  0
BLOCK_RECORD
  5
24B7
330
1
100
AcDbSymbolTableRecord
100
AcDbBlockTableRecord
  2
*D13
340
0
  0
BLOCK_RECORD
  5
24C3
330
1
100
AcDbSymbolTableRecord
100
AcDbBlockTableRecord
  2
*D14
340
0
  0
BLOCK_RECORD
  5
252C
330
1
100
AcDbSymbolTableRecord
100
AcDbBlockTableRecord
  2
*D15
340
0
  0
BLOCK_RECORD
  5
2538
330
1
100
AcDbSymbolTableRecord
100
AcDbBlockTableRecord
  2
*D16
340
0
  0
BLOCK_RECORD
  5
255C
330
1
100
AcDbSymbolTableRecord
100
AcDbBlockTableRecord
  2
*D17
340
0
  0
BLOCK_RECORD
  5
2568
330
1
100
AcDbSymbolTableRecord
100
AcDbBlockTableRecord
  2
*D18
340
0
  0
BLOCK_RECORD
  5
25BE
330
1
100
AcDbSymbolTableRecord
100
AcDbBlockTableRecord
  2
*D19
340
0
  0
BLOCK_RECORD
  5
25CA
330
1
100
AcDbSymbolTableRecord
100
AcDbBlockTableRecord
  2
*D20
340
0
  0
BLOCK_RECORD
  5
2606
330
1
100
AcDbSymbolTableRecord
100
AcDbBlockTableRecord
  2
*D21
340
0
  0
BLOCK_RECORD
  5
2612
330
1
100
AcDbSymbolTableRecord
100
AcDbBlockTableRecord
  2
*D22
340
0
  0
BLOCK_RECORD
  5
26CB
330
1
100
AcDbSymbolTableRecord
100
AcDbBlockTableRecord
  2
*D23
340
0
  0
BLOCK_RECORD
  5
2768
330
1
100
AcDbSymbolTableRecord
100
AcDbBlockTableRecord
  2
*D24
340
0
  0
BLOCK_RECORD
  5
2780
330
1
100
AcDbSymbolTableRecord
100
AcDbBlockTableRecord
  2
*D25
340
0
  0
BLOCK_RECORD
  5
27C6
330
1
100
AcDbSymbolTableRecord
100
AcDbBlockTableRecord
  2
*D26
340
0
  0
BLOCK_RECORD
  5
281E
330
1
100
AcDbSymbolTableRecord
100
AcDbBlockTableRecord
  2
_None
340
0
  0
ENDTAB
  0
ENDSEC
  0
SECTION
  2
BLOCKS
  0
BLOCK
  5
20
330
1F
100
AcDbEntity
  8
0
100
AcDbBlockBegin
  2
*Model_Space
 70
     0
 10
0.0
 20
0.0
 30
0.0
  3
*Model_Space
  1

  0
ENDBLK
  5
21
330
1F
100
AcDbEntity
  8
0
100
AcDbBlockEnd
  0
BLOCK
  5
1CC4
330
1CC3
100
AcDbEntity
 67
     1
  8
0
100
AcDbBlockBegin
  2
*Paper_Space
 70
     0
 10
0.0
 20
0.0
 30
0.0
  3
*Paper_Space
  1

  0
ENDBLK
  5
1CC7
330
1CC3
100
AcDbEntity
 67
     1
  8
0
100
AcDbBlockEnd
  0
BLOCK
  5
118
330
117
100
AcDbEntity
  8
0
 62
     1
 48
0.3
100
AcDbBlockBegin
  2
_Oblique
 70
     0
 10
0.0
 20
0.0
 30
0.0
  3
_Oblique
  1

  0
LINE
  5
119
330
117
100
AcDbEntity
  8
0
  6
ByBlock
 62
     0
370
    -2
100
AcDbLine
 10
-0.5
 20
-0.5
 30
0.0
 11
0.5
 21
0.5
 31
0.0
  0
ENDBLK
  5
11A
330
117
100
AcDbEntity
  8
0
 62
     1
 48
0.3
100
AcDbBlockEnd
  0
BLOCK
  5
1F6A
330
1F60
100
AcDbEntity
  8
0
100
AcDbBlockBegin
  2
*D1
 70
     1
 10
0.0
 20
0.0
 30
0.0
  3
*D1
  1

  0
LINE
  5
27A1
330
1F60
100
AcDbEntity
  8
Bemaßung
 62
     0
370
    -2
100
AcDbLine
 10
276.8735465959071
 20
141.7877816946985
 30
0.0
 11
283.6586446196843
 21
141.7877816946985
 31
0.0
  0
LINE
  5
27A2
330
1F60
100
AcDbEntity
  8
Bemaßung
 62
     0
370
    -2
100
AcDbLine
 10
275.3322784280699
 20
111.7877816946985
 30
0.0
 11
283.6586446196843
 21
111.7877816946985
 31
0.0
  0
LINE
  5
27A3
330
1F60
100
AcDbEntity
  8
Bemaßung
 62
     0
370
    -2
100
AcDbLine
 10
282.4086446196844
 20
141.7877816946985
 30
0.0
 11
282.4086446196843
 21
111.7877816946985
 31
0.0
  0
INSERT
  5
27A4
330
1F60
100
AcDbEntity
  8
Bemaßung
 62
     0
370
    -2
100
AcDbBlockReference
  2
_Oblique
 10
282.4086446196844
 20
141.7877816946985
 30
0.0
 41
2.5
 42
2.5
 43
2.5
 50
90.0
  0
INSERT
  5
27A5
330
1F60
100
AcDbEntity
  8
Bemaßung
 62
     0
370
    -2
100
AcDbBlockReference
  2
_Oblique
 10
282.4086446196843
 20
111.7877816946985
 30
0.0
 41
2.5
 42
2.5
 43
2.5
 50
270.0
  0
MTEXT
  5
27A6
330
1F60
100
AcDbEntity
  8
Bemaßung
 62
     0
100
AcDbMText
 10
280.5336446196843
 20
126.7877816946985
 30
0.0
 40
2.5
 41
0.0
 71
     5
 72
     1
  1
30
  7
RomanS
 11
0.0000000000000001
 21
1.0
 31
0.0
 73
     1
 44
1.0
1001
ACAD
1000
MTEXTBEGIN
1070
    73
1070
     1
1070
    44
1040
1.0
1070
    74
1070
     0
1000
MTEXTEND
  0
POINT
  5
27A7
330
1F60
100
AcDbEntity
  8
Defpoints
 62
     0
100
AcDbPoint
 10
276.2485465959071
 20
141.7877816946985
 30
0.0
  0
POINT
  5
27A8
330
1F60
100
AcDbEntity
  8
Defpoints
 62
     0
100
AcDbPoint
 10
274.7072784280699
 20
111.7877816946985
 30
0.0
  0
POINT
  5
27A9
330
1F60
100
AcDbEntity
  8
Defpoints
 62
     0
100
AcDbPoint
 10
282.4086446196843
 20
111.7877816946985
 30
0.0
  0
ENDBLK
  5
1F6B
330
1F60
100
AcDbEntity
  8
0
100
AcDbBlockEnd
  0
BLOCK
  5
1F76
330
1F6C
100
AcDbEntity
  8
0
100
AcDbBlockBegin
  2
*D2
 70
     1
 10
0.0
 20
0.0
 30
0.0
  3
*D2
  1

  0
LINE
  5
21BF
330
1F6C
100
AcDbEntity
  8
Bemaßung
 62
     0
370
    -2
100
AcDbLine
 10
196.2118588190933
 20
48.96542009642089
 30
0.0
 11
196.2118588190933
 21
49.59042009642089
 31
0.0
  0
LINE
  5
21C0
330
1F6C
100
AcDbEntity
  8
Bemaßung
 62
     0
370
    -2
100
AcDbLine
 10
184.2118588190933
 20
48.96542009642089
 30
0.0
 11
184.2118588190933
 21
49.59042009642089
 31
0.0
  0
LINE
  5
21C1
330
1F6C
100
AcDbEntity
  8
Bemaßung
 62
     0
370
    -2
100
AcDbLine
 10
196.2118588190933
 20
48.34042009642089
 30
0.0
 11
184.2118588190933
 21
48.34042009642089
 31
0.0
  0
INSERT
  5
21C2
330
1F6C
100
AcDbEntity
  8
Bemaßung
 62
     0
370
    -2
100
AcDbBlockReference
  2
_Oblique
 10
196.2118588190933
 20
48.34042009642089
 30
0.0
 41
2.5
 42
2.5
 43
2.5
  0
INSERT
  5
21C3
330
1F6C
100
AcDbEntity
  8
Bemaßung
 62
     0
370
    -2
100
AcDbBlockReference
  2
_Oblique
 10
184.2118588190933
 20
48.34042009642089
 30
0.0
 41
2.5
 42
2.5
 43
2.5
 50
180.0
  0
MTEXT
  5
21C4
330
1F6C
100
AcDbEntity
  8
Bemaßung
 62
     0
100
AcDbMText
 10
190.2118588190933
 20
50.21542009642089
 30
0.0
 40
2.5
 41
0.0
 71
     5
 72
     1
  1
12
  7
RomanS
 73
     1
 44
1.0
1001
ACAD
1000
MTEXTBEGIN
1070
    73
1070
     1
1070
    44
1040
1.0
1070
    74
1070
     0
1000
MTEXTEND
  0
POINT
  5
21C5
330
1F6C
100
AcDbEntity
  8
Defpoints
 62
     0
100
AcDbPoint
 10
196.2118588190933
 20
48.34042009642089
 30
0.0
  0
POINT
  5
21C6
330
1F6C
100
AcDbEntity
  8
Defpoints
 62
     0
100
AcDbPoint
 10
184.2118588190933
 20
48.34042009642089
 30
0.0
  0
POINT
  5
21C7
330
1F6C
100
AcDbEntity
  8
Defpoints
 62
     0
100
AcDbPoint
 10
184.2118588190933
 20
48.34042009642089
 30
0.0
  0
ENDBLK
  5
1F77
330
1F6C
100
AcDbEntity
  8
0
100
AcDbBlockEnd
  0
BLOCK
  5
1F82
330
1F78
100
AcDbEntity
  8
0
100
AcDbBlockBegin
  2
*D3
 70
     1
 10
0.0
 20
0.0
 30
0.0
  3
*D3
  1

  0
LINE
  5
21C8
330
1F78
100
AcDbEntity
  8
Bemaßung
 62
     0
370
    -2
100
AcDbLine
 10
181.3049137127768
 20
51.91454154400346
 30
0.0
 11
177.27296860646
 21
51.91454154400346
 31
0.0
  0
LINE
  5
21C9
330
1F78
100
AcDbEntity
  8
Bemaßung
 62
     0
370
    -2
100
AcDbLine
 10
181.7242408363336
 20
21.9145415440035
 30
0.0
 11
177.27296860646
 21
21.9145415440035
 31
0.0
  0
LINE
  5
21CA
330
1F78
100
AcDbEntity
  8
Bemaßung
 62
     0
370
    -2
100
AcDbLine
 10
178.52296860646
 20
51.91454154400346
 30
0.0
 11
178.52296860646
 21
21.9145415440035
 31
0.0
  0
INSERT
  5
21CB
330
1F78
100
AcDbEntity
  8
Bemaßung
 62
     0
370
    -2
100
AcDbBlockReference
  2
_Oblique
 10
178.52296860646
 20
51.91454154400346
 30
0.0
 41
2.5
 42
2.5
 43
2.5
 50
90.0
  0
INSERT
  5
21CC
330
1F78
100
AcDbEntity
  8
Bemaßung
 62
     0
370
    -2
100
AcDbBlockReference
  2
_Oblique
 10
178.52296860646
 20
21.9145415440035
 30
0.0
 41
2.5
 42
2.5
 43
2.5
 50
270.0
  0
MTEXT
  5
21CD
330
1F78
100
AcDbEntity
  8
Bemaßung
 62
     0
100
AcDbMText
 10
176.6479686064601
 20
36.9145415440035
 30
0.0
 40
2.5
 41
0.0
 71
     5
 72
     1
  1
30
  7
RomanS
 11
0.0000000000000001
 21
1.0
 31
0.0
 73
     1
 44
1.0
1001
ACAD
1000
MTEXTBEGIN
1070
    73
1070
     1
1070
    44
1040
1.0
1070
    74
1070
     0
1000
MTEXTEND
  0
POINT
  5
21CE
330
1F78
100
AcDbEntity
  8
Defpoints
 62
     0
100
AcDbPoint
 10
181.9299137127768
 20
51.91454154400346
 30
0.0
  0
POINT
  5
21CF
330
1F78
100
AcDbEntity
  8
Defpoints
 62
     0
100
AcDbPoint
 10
182.3492408363336
 20
21.9145415440035
 30
0.0
  0
POINT
  5
21D0
330
1F78
100
AcDbEntity
  8
Defpoints
 62
     0
100
AcDbPoint
 10
178.52296860646
 20
21.9145415440035
 30
0.0
  0
ENDBLK
  5
1F83
330
1F78
100
AcDbEntity
  8
0
100
AcDbBlockEnd
  0
BLOCK
  5
1F8E
330
1F84
100
AcDbEntity
  8
0
100
AcDbBlockBegin
  2
*D4
 70
     1
 10
0.0
 20
0.0
 30
0.0
  3
*D4
  1

  0
LINE
  5
21D1
330
1F84
100
AcDbEntity
  8
Bemaßung
 62
     0
370
    -2
100
AcDbLine
 10
177.8979686064601
 20
21.9145415440035
 30
0.0
 11
171.6807249429756
 21
21.9145415440035
 31
0.0
  0
LINE
  5
21D2
330
1F84
100
AcDbEntity
  8
Bemaßung
 62
     0
370
    -2
100
AcDbLine
 10
180.6450363348077
 20
56.91454154400346
 30
0.0
 11
171.6807249429756
 21
56.91454154400346
 31
0.0
  0
LINE
  5
21D3
330
1F84
100
AcDbEntity
  8
Bemaßung
 62
     0
370
    -2
100
AcDbLine
 10
172.9307249429756
 20
21.9145415440035
 30
0.0
 11
172.9307249429756
 21
56.91454154400346
 31
0.0
  0
INSERT
  5
21D4
330
1F84
100
AcDbEntity
  8
Bemaßung
 62
     0
370
    -2
100
AcDbBlockReference
  2
_Oblique
 10
172.9307249429756
 20
21.9145415440035
 30
0.0
 41
2.5
 42
2.5
 43
2.5
 50
270.0
  0
INSERT
  5
21D5
330
1F84
100
AcDbEntity
  8
Bemaßung
 62
     0
370
    -2
100
AcDbBlockReference
  2
_Oblique
 10
172.9307249429756
 20
56.91454154400346
 30
0.0
 41
2.5
 42
2.5
 43
2.5
 50
90.0
  0
MTEXT
  5
21D6
330
1F84
100
AcDbEntity
  8
Bemaßung
 62
     0
100
AcDbMText
 10
171.0557249429756
 20
39.4145415440035
 30
0.0
 40
2.5
 41
0.0
 71
     5
 72
     1
  1
35
  7
RomanS
 11
0.0000000000000001
 21
1.0
 31
0.0
 73
     1
 44
1.0
1001
ACAD
1000
MTEXTBEGIN
1070
    73
1070
     1
1070
    44
1040
1.0
1070
    74
1070
     0
1000
MTEXTEND
  0
POINT
  5
21D7
330
1F84
100
AcDbEntity
  8
Defpoints
 62
     0
100
AcDbPoint
 10
178.52296860646
 20
21.9145415440035
 30
0.0
  0
POINT
  5
21D8
330
1F84
100
AcDbEntity
  8
Defpoints
 62
     0
100
AcDbPoint
 10
181.2700363348077
 20
56.91454154400346
 30
0.0
  0
POINT
  5
21D9
330
1F84
100
AcDbEntity
  8
Defpoints
 62
     0
100
AcDbPoint
 10
172.9307249429756
 20
56.91454154400346
 30
0.0
  0
ENDBLK
  5
1F8F
330
1F84
100
AcDbEntity
  8
0
100
AcDbBlockEnd
  0
BLOCK
  5
1F9A
330
1F90
100
AcDbEntity
  8
0
100
AcDbBlockBegin
  2
*D5
 70
     1
 10
0.0
 20
0.0
 30
0.0
  3
*D5
  1

  0
LINE
  5
21DA
330
1F90
100
AcDbEntity
  8
Bemaßung
 62
     0
370
    -2
100
AcDbLine
 10
46.21185881909338
 20
48.96542009642089
 30
0.0
 11
46.21185881909338
 21
49.59042009642089
 31
0.0
  0
LINE
  5
21DB
330
1F90
100
AcDbEntity
  8
Bemaßung
 62
     0
370
    -2
100
AcDbLine
 10
34.21185881909333
 20
48.96542009642089
 30
0.0
 11
34.21185881909333
 21
49.59042009642089
 31
0.0
  0
LINE
  5
21DC
330
1F90
100
AcDbEntity
  8
Bemaßung
 62
     0
370
    -2
100
AcDbLine
 10
46.21185881909338
 20
48.34042009642089
 30
0.0
 11
34.21185881909333
 21
48.34042009642089
 31
0.0
  0
INSERT
  5
21DD
330
1F90
100
AcDbEntity
  8
Bemaßung
 62
     0
370
    -2
100
AcDbBlockReference
  2
_Oblique
 10
46.21185881909338
 20
48.34042009642089
 30
0.0
 41
2.5
 42
2.5
 43
2.5
  0
INSERT
  5
21DE
330
1F90
100
AcDbEntity
  8
Bemaßung
 62
     0
370
    -2
100
AcDbBlockReference
  2
_Oblique
 10
34.21185881909333
 20
48.34042009642089
 30
0.0
 41
2.5
 42
2.5
 43
2.5
 50
180.0
  0
MTEXT
  5
21DF
330
1F90
100
AcDbEntity
  8
Bemaßung
 62
     0
100
AcDbMText
 10
40.21185881909334
 20
50.21542009642089
 30
0.0
 40
2.5
 41
0.0
 71
     5
 72
     1
  1
12
  7
RomanS
 73
     1
 44
1.0
1001
ACAD
1000
MTEXTBEGIN
1070
    73
1070
     1
1070
    44
1040
1.0
1070
    74
1070
     0
1000
MTEXTEND
  0
POINT
  5
21E0
330
1F90
100
AcDbEntity
  8
Defpoints
 62
     0
100
AcDbPoint
 10
46.21185881909338
 20
48.34042009642089
 30
0.0
  0
POINT
  5
21E1
330
1F90
100
AcDbEntity
  8
Defpoints
 62
     0
100
AcDbPoint
 10
34.21185881909333
 20
48.34042009642089
 30
0.0
  0
POINT
  5
21E2
330
1F90
100
AcDbEntity
  8
Defpoints
 62
     0
100
AcDbPoint
 10
34.21185881909333
 20
48.34042009642089
 30
0.0
  0
ENDBLK
  5
1F9B
330
1F90
100
AcDbEntity
  8
0
100
AcDbBlockEnd
  0
BLOCK
  5
1FA6
330
1F9C
100
AcDbEntity
  8
0
100
AcDbBlockBegin
  2
*D6
 70
     1
 10
0.0
 20
0.0
 30
0.0
  3
*D6
  1

  0
LINE
  5
21E3
330
1F9C
100
AcDbEntity
  8
Bemaßung
 62
     0
370
    -2
100
AcDbLine
 10
31.30491371277691
 20
51.91454154400346
 30
0.0
 11
27.27296860646039
 21
51.91454154400346
 31
0.0
  0
LINE
  5
21E4
330
1F9C
100
AcDbEntity
  8
Bemaßung
 62
     0
370
    -2
100
AcDbLine
 10
31.72424083633359
 20
21.9145415440035
 30
0.0
 11
27.27296860646038
 21
21.9145415440035
 31
0.0
  0
LINE
  5
21E5
330
1F9C
100
AcDbEntity
  8
Bemaßung
 62
     0
370
    -2
100
AcDbLine
 10
28.52296860646039
 20
51.91454154400346
 30
0.0
 11
28.52296860646038
 21
21.9145415440035
 31
0.0
  0
INSERT
  5
21E6
330
1F9C
100
AcDbEntity
  8
Bemaßung
 62
     0
370
    -2
100
AcDbBlockReference
  2
_Oblique
 10
28.52296860646039
 20
51.91454154400346
 30
0.0
 41
2.5
 42
2.5
 43
2.5
 50
90.0
  0
INSERT
  5
21E7
330
1F9C
100
AcDbEntity
  8
Bemaßung
 62
     0
370
    -2
100
AcDbBlockReference
  2
_Oblique
 10
28.52296860646038
 20
21.9145415440035
 30
0.0
 41
2.5
 42
2.5
 43
2.5
 50
270.0
  0
MTEXT
  5
21E8
330
1F9C
100
AcDbEntity
  8
Bemaßung
 62
     0
100
AcDbMText
 10
26.64796860646038
 20
36.91454154400349
 30
0.0
 40
2.5
 41
0.0
 71
     5
 72
     1
  1
30
  7
RomanS
 11
0.0000000000000001
 21
1.0
 31
0.0
 73
     1
 44
1.0
1001
ACAD
1000
MTEXTBEGIN
1070
    73
1070
     1
1070
    44
1040
1.0
1070
    74
1070
     0
1000
MTEXTEND
  0
POINT
  5
21E9
330
1F9C
100
AcDbEntity
  8
Defpoints
 62
     0
100
AcDbPoint
 10
31.92991371277691
 20
51.91454154400346
 30
0.0
  0
POINT
  5
21EA
330
1F9C
100
AcDbEntity
  8
Defpoints
 62
     0
100
AcDbPoint
 10
32.34924083633359
 20
21.9145415440035
 30
0.0
  0
POINT
  5
21EB
330
1F9C
100
AcDbEntity
  8
Defpoints
 62
     0
100
AcDbPoint
 10
28.52296860646038
 20
21.9145415440035
 30
0.0
  0
ENDBLK
  5
1FA7
330
1F9C
100
AcDbEntity
  8
0
100
AcDbBlockEnd
  0
BLOCK
  5
1FB2
330
1FA8
100
AcDbEntity
  8
0
100
AcDbBlockBegin
  2
*D7
 70
     1
 10
0.0
 20
0.0
 30
0.0
  3
*D7
  1

  0
LINE
  5
21EC
330
1FA8
100
AcDbEntity
  8
Bemaßung
 62
     0
370
    -2
100
AcDbLine
 10
27.89796860646038
 20
21.9145415440035
 30
0.0
 11
21.68072494297535
 21
21.9145415440035
 31
0.0
  0
LINE
  5
21ED
330
1FA8
100
AcDbEntity
  8
Bemaßung
 62
     0
370
    -2
100
AcDbLine
 10
30.64503633480774
 20
56.91454154400346
 30
0.0
 11
21.68072494297536
 21
56.91454154400346
 31
0.0
  0
LINE
  5
21EE
330
1FA8
100
AcDbEntity
  8
Bemaßung
 62
     0
370
    -2
100
AcDbLine
 10
22.93072494297535
 20
21.9145415440035
 30
0.0
 11
22.93072494297536
 21
56.91454154400346
 31
0.0
  0
INSERT
  5
21EF
330
1FA8
100
AcDbEntity
  8
Bemaßung
 62
     0
370
    -2
100
AcDbBlockReference
  2
_Oblique
 10
22.93072494297535
 20
21.9145415440035
 30
0.0
 41
2.5
 42
2.5
 43
2.5
 50
270.0
  0
INSERT
  5
21F0
330
1FA8
100
AcDbEntity
  8
Bemaßung
 62
     0
370
    -2
100
AcDbBlockReference
  2
_Oblique
 10
22.93072494297536
 20
56.91454154400346
 30
0.0
 41
2.5
 42
2.5
 43
2.5
 50
90.0
  0
MTEXT
  5
21F1
330
1FA8
100
AcDbEntity
  8
Bemaßung
 62
     0
100
AcDbMText
 10
21.05572494297535
 20
39.41454154400349
 30
0.0
 40
2.5
 41
0.0
 71
     5
 72
     1
  1
35
  7
RomanS
 11
0.0000000000000001
 21
1.0
 31
0.0
 73
     1
 44
1.0
1001
ACAD
1000
MTEXTBEGIN
1070
    73
1070
     1
1070
    44
1040
1.0
1070
    74
1070
     0
1000
MTEXTEND
  0
POINT
  5
21F2
330
1FA8
100
AcDbEntity
  8
Defpoints
 62
     0
100
AcDbPoint
 10
28.52296860646038
 20
21.9145415440035
 30
0.0
  0
POINT
  5
21F3
330
1FA8
100
AcDbEntity
  8
Defpoints
 62
     0
100
AcDbPoint
 10
31.27003633480774
 20
56.91454154400346
 30
0.0
  0
POINT
  5
21F4
330
1FA8
100
AcDbEntity
  8
Defpoints
 62
     0
100
AcDbPoint
 10
22.93072494297536
 20
56.91454154400346
 30
0.0
  0
ENDBLK
  5
1FB3
330
1FA8
100
AcDbEntity
  8
0
100
AcDbBlockEnd
  0
BLOCK
  5
1FBE
330
1FB4
100
AcDbEntity
  8
0
100
AcDbBlockBegin
  2
*D8
 70
     1
 10
0.0
 20
0.0
 30
0.0
  3
*D8
  1

  0
LINE
  5
21F5
330
1FB4
100
AcDbEntity
  8
Bemaßung
 62
     0
370
    -2
100
AcDbLine
 10
102.2118588190926
 20
52.78954154400363
 30
0.0
 11
102.2118588190926
 21
46.82334437716
 31
0.0
  0
LINE
  5
21F6
330
1FB4
100
AcDbEntity
  8
Bemaßung
 62
     0
370
    -2
100
AcDbLine
 10
94.21185881909357
 20
49.24286286216812
 30
0.0
 11
94.21185881909357
 21
46.82334437716
 31
0.0
  0
LINE
  5
21F7
330
1FB4
100
AcDbEntity
  8
Bemaßung
 62
     0
370
    -2
100
AcDbLine
 10
102.2118588190926
 20
48.07334437716
 30
0.0
 11
94.21185881909357
 21
48.07334437716
 31
0.0
  0
INSERT
  5
21F8
330
1FB4
100
AcDbEntity
  8
Bemaßung
 62
     0
370
    -2
100
AcDbBlockReference
  2
_Oblique
 10
102.2118588190926
 20
48.07334437716
 30
0.0
 41
2.5
 42
2.5
 43
2.5
  0
INSERT
  5
21F9
330
1FB4
100
AcDbEntity
  8
Bemaßung
 62
     0
370
    -2
100
AcDbBlockReference
  2
_Oblique
 10
94.21185881909357
 20
48.07334437716
 30
0.0
 41
2.5
 42
2.5
 43
2.5
 50
180.0
  0
MTEXT
  5
21FA
330
1FB4
100
AcDbEntity
  8
Bemaßung
 62
     0
100
AcDbMText
 10
98.21185881909308
 20
49.94834437716
 30
0.0
 40
2.5
 41
0.0
 71
     5
 72
     1
  1
8
  7
RomanS
 73
     1
 44
1.0
1001
ACAD
1000
MTEXTBEGIN
1070
    73
1070
     1
1070
    44
1040
1.0
1070
    74
1070
     0
1000
MTEXTEND
  0
POINT
  5
21FB
330
1FB4
100
AcDbEntity
  8
Defpoints
 62
     0
100
AcDbPoint
 10
102.2118588190926
 20
53.41454154400363
 30
0.0
  0
POINT
  5
21FC
330
1FB4
100
AcDbEntity
  8
Defpoints
 62
     0
100
AcDbPoint
 10
94.21185881909357
 20
49.86786286216812
 30
0.0
  0
POINT
  5
21FD
330
1FB4
100
AcDbEntity
  8
Defpoints
 62
     0
100
AcDbPoint
 10
94.21185881909357
 20
48.07334437716
 30
0.0
  0
ENDBLK
  5
1FBF
330
1FB4
100
AcDbEntity
  8
0
100
AcDbBlockEnd
  0
BLOCK
  5
1FCA
330
1FC0
100
AcDbEntity
  8
0
100
AcDbBlockBegin
  2
*D9
 70
     1
 10
0.0
 20
0.0
 30
0.0
  3
*D9
  1

  0
LINE
  5
21FE
330
1FC0
100
AcDbEntity
  8
Bemaßung
 62
     0
370
    -2
100
AcDbLine
 10
106.2484758237887
 20
51.91454154400346
 30
0.0
 11
113.033573847566
 21
51.91454154400346
 31
0.0
  0
LINE
  5
21FF
330
1FC0
100
AcDbEntity
  8
Bemaßung
 62
     0
370
    -2
100
AcDbLine
 10
104.7072076559516
 20
21.9145415440035
 30
0.0
 11
113.033573847566
 21
21.9145415440035
 31
0.0
  0
LINE
  5
2200
330
1FC0
100
AcDbEntity
  8
Bemaßung
 62
     0
370
    -2
100
AcDbLine
 10
111.783573847566
 20
51.91454154400346
 30
0.0
 11
111.783573847566
 21
21.9145415440035
 31
0.0
  0
INSERT
  5
2201
330
1FC0
100
AcDbEntity
  8
Bemaßung
 62
     0
370
    -2
100
AcDbBlockReference
  2
_Oblique
 10
111.783573847566
 20
51.91454154400346
 30
0.0
 41
2.5
 42
2.5
 43
2.5
 50
90.0
  0
INSERT
  5
2202
330
1FC0
100
AcDbEntity
  8
Bemaßung
 62
     0
370
    -2
100
AcDbBlockReference
  2
_Oblique
 10
111.783573847566
 20
21.9145415440035
 30
0.0
 41
2.5
 42
2.5
 43
2.5
 50
270.0
  0
MTEXT
  5
2203
330
1FC0
100
AcDbEntity
  8
Bemaßung
 62
     0
100
AcDbMText
 10
109.908573847566
 20
36.9145415440035
 30
0.0
 40
2.5
 41
0.0
 71
     5
 72
     1
  1
30
  7
RomanS
 11
0.0000000000000001
 21
1.0
 31
0.0
 73
     1
 44
1.0
1001
ACAD
1000
MTEXTBEGIN
1070
    73
1070
     1
1070
    44
1040
1.0
1070
    74
1070
     0
1000
MTEXTEND
  0
POINT
  5
2204
330
1FC0
100
AcDbEntity
  8
Defpoints
 62
     0
100
AcDbPoint
 10
105.6234758237887
 20
51.91454154400346
 30
0.0
  0
POINT
  5
2205
330
1FC0
100
AcDbEntity
  8
Defpoints
 62
     0
100
AcDbPoint
 10
104.0822076559516
 20
21.9145415440035
 30
0.0
  0
POINT
  5
2206
330
1FC0
100
AcDbEntity
  8
Defpoints
 62
     0
100
AcDbPoint
 10
111.783573847566
 20
21.9145415440035
 30
0.0
  0
ENDBLK
  5
1FCB
330
1FC0
100
AcDbEntity
  8
0
100
AcDbBlockEnd
  0
BLOCK
  5
1FD6
330
1FCC
100
AcDbEntity
  8
0
100
AcDbBlockBegin
  2
*D10
 70
     1
 10
0.0
 20
0.0
 30
0.0
  3
*D10
  1

  0
LINE
  5
2797
330
1FCC
100
AcDbEntity
  8
Bemaßung
 62
     0
370
    -2
100
AcDbLine
 10
204.8369295912109
 20
146.5627821948848
 30
0.0
 11
204.8369295912109
 21
144.1432637098765
 31
0.0
  0
LINE
  5
2798
330
1FCC
100
AcDbEntity
  8
Bemaßung
 62
     0
370
    -2
100
AcDbLine
 10
204.8369295912109
 20
147.5178988751591
 30
0.0
 11
204.8369295912109
 21
144.1432637098765
 31
0.0
  0
LINE
  5
2799
330
1FCC
100
AcDbEntity
  8
Bemaßung
 62
     0
370
    -2
100
AcDbLine
 10
204.8369295912109
 20
145.3932637098765
 30
0.0
 11
202.3369295912109
 21
145.3932637098765
 31
0.0
  0
LINE
  5
279A
330
1FCC
100
AcDbEntity
  8
Bemaßung
 62
     0
370
    -2
100
AcDbLine
 10
204.8369295912109
 20
145.3932637098765
 30
0.0
 11
212.2535962578776
 21
145.3932637098765
 31
0.0
  0
INSERT
  5
279B
330
1FCC
100
AcDbEntity
  8
Bemaßung
 62
     0
370
    -2
100
AcDbBlockReference
  2
_Oblique
 10
204.8369295912109
 20
145.3932637098765
 30
0.0
 41
2.5
 42
2.5
 43
2.5
  0
INSERT
  5
279C
330
1FCC
100
AcDbEntity
  8
Bemaßung
 62
     0
370
    -2
100
AcDbBlockReference
  2
_Oblique
 10
204.8369295912109
 20
145.3932637098765
 30
0.0
 41
2.5
 42
2.5
 43
2.5
 50
180.0
  0
MTEXT
  5
279D
330
1FCC
100
AcDbEntity
  8
Bemaßung
 62
     0
100
AcDbMText
 10
211.0452629245443
 20
147.2682637098765
 30
0.0
 40
2.5
 41
0.0
 71
     5
 72
     1
  1
0
  7
RomanS
 73
     1
 44
1.0
1001
ACAD
1000
MTEXTBEGIN
1070
    73
1070
     1
1070
    44
1040
1.0
1070
    74
1070
     0
1000
MTEXTEND
  0
POINT
  5
279E
330
1FCC
100
AcDbEntity
  8
Defpoints
 62
     0
100
AcDbPoint
 10
204.8369295912109
 20
147.1877821948848
 30
0.0
  0
POINT
  5
279F
330
1FCC
100
AcDbEntity
  8
Defpoints
 62
     0
100
AcDbPoint
 10
204.8369295912109
 20
148.1428988751591
 30
0.0
  0
POINT
  5
27A0
330
1FCC
100
AcDbEntity
  8
Defpoints
 62
     0
100
AcDbPoint
 10
204.8369295912109
 20
145.3932637098765
 30
0.0
  0
ENDBLK
  5
1FD7
330
1FCC
100
AcDbEntity
  8
0
100
AcDbBlockEnd
  0
BLOCK
  5
2483
330
2479
100
AcDbEntity
  8
0
100
AcDbBlockBegin
  2
*D11
 70
     1
 10
0.0
 20
0.0
 30
0.0
  3
*D11
  1

  0
LINE
  5
2506
330
2479
100
AcDbEntity
  8
Bemaßung
 62
     0
370
    -2
100
AcDbLine
 10
537.5939514079068
 20
31.58653314249341
 30
0.0
 11
544.9359018051691
 21
31.58653314249341
 31
0.0
  0
LINE
  5
2507
330
2479
100
AcDbEntity
  8
Bemaßung
 62
     0
370
    -2
100
AcDbLine
 10
537.5939514079068
 20
71.58653314249341
 30
0.0
 11
544.9359018051691
 21
71.58653314249339
 31
0.0
  0
LINE
  5
2508
330
2479
100
AcDbEntity
  8
Bemaßung
 62
     0
370
    -2
100
AcDbLine
 10
543.685901805169
 20
31.58653314249341
 30
0.0
 11
543.685901805169
 21
71.58653314249341
 31
0.0
  0
INSERT
  5
2509
330
2479
100
AcDbEntity
  8
Bemaßung
 62
     0
370
    -2
100
AcDbBlockReference
  2
_Oblique
 10
543.685901805169
 20
31.58653314249341
 30
0.0
 41
2.5
 42
2.5
 43
2.5
 50
270.0
  0
INSERT
  5
250A
330
2479
100
AcDbEntity
  8
Bemaßung
 62
     0
370
    -2
100
AcDbBlockReference
  2
_Oblique
 10
543.685901805169
 20
71.58653314249341
 30
0.0
 41
2.5
 42
2.5
 43
2.5
 50
90.0
  0
MTEXT
  5
250B
330
2479
100
AcDbEntity
  8
Bemaßung
 62
     0
100
AcDbMText
 10
541.8109018051691
 20
51.58653314249349
 30
0.0
 40
2.5
 41
0.0
 71
     5
 72
     1
  1
0-40
  7
RomanS
 11
0.0000000000000001
 21
1.0
 31
0.0
 73
     1
 44
1.0
1001
ACAD
1000
MTEXTBEGIN
1070
    73
1070
     1
1070
    44
1040
1.0
1070
    74
1070
     0
1000
MTEXTEND
  0
POINT
  5
250C
330
2479
100
AcDbEntity
  8
Defpoints
 62
     0
100
AcDbPoint
 10
536.9689514079068
 20
31.58653314249341
 30
0.0
  0
POINT
  5
250D
330
2479
100
AcDbEntity
  8
Defpoints
 62
     0
100
AcDbPoint
 10
536.9689514079068
 20
71.58653314249341
 30
0.0
  0
POINT
  5
250E
330
2479
100
AcDbEntity
  8
Defpoints
 62
     0
100
AcDbPoint
 10
543.685901805169
 20
71.58653314249341
 30
0.0
  0
ENDBLK
  5
2484
330
2479
100
AcDbEntity
  8
0
100
AcDbBlockEnd
  0
BLOCK
  5
249B
330
2491
100
AcDbEntity
  8
0
100
AcDbBlockBegin
  2
*D12
 70
     1
 10
0.0
 20
0.0
 30
0.0
  3
*D12
  1

  0
LINE
  5
250F
330
2491
100
AcDbEntity
  8
Bemaßung
 62
     0
370
    -2
100
AcDbLine
 10
496.9689514079071
 20
30.96153314249341
 30
0.0
 11
496.9689514079071
 21
22.61752871326485
 31
0.0
  0
LINE
  5
2510
330
2491
100
AcDbEntity
  8
Bemaßung
 62
     0
370
    -2
100
AcDbLine
 10
536.9689514079068
 20
30.96153314249341
 30
0.0
 11
536.9689514079068
 21
22.61752871326485
 31
0.0
  0
LINE
  5
2511
330
2491
100
AcDbEntity
  8
Bemaßung
 62
     0
370
    -2
100
AcDbLine
 10
496.9689514079071
 20
23.86752871326485
 30
0.0
 11
536.9689514079068
 21
23.86752871326485
 31
0.0
  0
INSERT
  5
2512
330
2491
100
AcDbEntity
  8
Bemaßung
 62
     0
370
    -2
100
AcDbBlockReference
  2
_Oblique
 10
496.9689514079071
 20
23.86752871326485
 30
0.0
 41
2.5
 42
2.5
 43
2.5
 50
180.0
  0
INSERT
  5
2513
330
2491
100
AcDbEntity
  8
Bemaßung
 62
     0
370
    -2
100
AcDbBlockReference
  2
_Oblique
 10
536.9689514079068
 20
23.86752871326485
 30
0.0
 41
2.5
 42
2.5
 43
2.5
  0
MTEXT
  5
2514
330
2491
100
AcDbEntity
  8
Bemaßung
 62
     0
100
AcDbMText
 10
516.9689514079068
 20
25.74252871326485
 30
0.0
 40
2.5
 41
0.0
 71
     5
 72
     1
  1
0-40
  7
RomanS
 73
     1
 44
1.0
1001
ACAD
1000
MTEXTBEGIN
1070
    73
1070
     1
1070
    44
1040
1.0
1070
    74
1070
     0
1000
MTEXTEND
  0
POINT
  5
2515
330
2491
100
AcDbEntity
  8
Defpoints
 62
     0
100
AcDbPoint
 10
496.9689514079071
 20
31.58653314249341
 30
0.0
  0
POINT
  5
2516
330
2491
100
AcDbEntity
  8
Defpoints
 62
     0
100
AcDbPoint
 10
536.9689514079068
 20
31.58653314249341
 30
0.0
  0
POINT
  5
2517
330
2491
100
AcDbEntity
  8
Defpoints
 62
     0
100
AcDbPoint
 10
536.9689514079068
 20
23.86752871326485
 30
0.0
  0
ENDBLK
  5
249C
330
2491
100
AcDbEntity
  8
0
100
AcDbBlockEnd
  0
BLOCK
  5
24C1
330
24B7
100
AcDbEntity
  8
0
100
AcDbBlockBegin
  2
*D13
 70
     1
 10
0.0
 20
0.0
 30
0.0
  3
*D13
  1

  0
LINE
  5
2518
330
24B7
100
AcDbEntity
  8
Bemaßung
 62
     0
370
    -2
100
AcDbLine
 10
568.3439514079067
 20
31.58653314249341
 30
0.0
 11
561.0020010106445
 21
31.58653314249341
 31
0.0
  0
LINE
  5
2519
330
24B7
100
AcDbEntity
  8
Bemaßung
 62
     0
370
    -2
100
AcDbLine
 10
568.3439514079067
 20
71.58653314249341
 30
0.0
 11
561.0020010106445
 21
71.58653314249341
 31
0.0
  0
LINE
  5
251A
330
24B7
100
AcDbEntity
  8
Bemaßung
 62
     0
370
    -2
100
AcDbLine
 10
562.2520010106443
 20
31.58653314249341
 30
0.0
 11
562.2520010106443
 21
71.58653314249341
 31
0.0
  0
INSERT
  5
251B
330
24B7
100
AcDbEntity
  8
Bemaßung
 62
     0
370
    -2
100
AcDbBlockReference
  2
_Oblique
 10
562.2520010106443
 20
31.58653314249341
 30
0.0
 41
2.5
 42
2.5
 43
2.5
 50
270.0
  0
INSERT
  5
251C
330
24B7
100
AcDbEntity
  8
Bemaßung
 62
     0
370
    -2
100
AcDbBlockReference
  2
_Oblique
 10
562.2520010106443
 20
71.58653314249341
 30
0.0
 41
2.5
 42
2.5
 43
2.5
 50
90.0
  0
MTEXT
  5
251D
330
24B7
100
AcDbEntity
  8
Bemaßung
 62
     0
100
AcDbMText
 10
560.3770010106443
 20
51.58653314249349
 30
0.0
 40
2.5
 41
0.0
 71
     5
 72
     1
  1
0-40
  7
RomanS
 11
0.0000000000000001
 21
1.0
 31
0.0
 73
     1
 44
1.0
1001
ACAD
1000
MTEXTBEGIN
1070
    73
1070
     1
1070
    44
1040
1.0
1070
    74
1070
     0
1000
MTEXTEND
  0
POINT
  5
251E
330
24B7
100
AcDbEntity
  8
Defpoints
 62
     0
100
AcDbPoint
 10
568.9689514079067
 20
31.58653314249341
 30
0.0
  0
POINT
  5
251F
330
24B7
100
AcDbEntity
  8
Defpoints
 62
     0
100
AcDbPoint
 10
568.9689514079067
 20
71.58653314249341
 30
0.0
  0
POINT
  5
2520
330
24B7
100
AcDbEntity
  8
Defpoints
 62
     0
100
AcDbPoint
 10
562.2520010106443
 20
71.58653314249341
 30
0.0
  0
ENDBLK
  5
24C2
330
24B7
100
AcDbEntity
  8
0
100
AcDbBlockEnd
  0
BLOCK
  5
24CD
330
24C3
100
AcDbEntity
  8
0
100
AcDbBlockBegin
  2
*D14
 70
     1
 10
0.0
 20
0.0
 30
0.0
  3
*D14
  1

  0
LINE
  5
2521
330
24C3
100
AcDbEntity
  8
Bemaßung
 62
     0
370
    -2
100
AcDbLine
 10
608.9689514079065
 20
30.96153314249341
 30
0.0
 11
608.9689514079065
 21
22.61752871326485
 31
0.0
  0
LINE
  5
2522
330
24C3
100
AcDbEntity
  8
Bemaßung
 62
     0
370
    -2
100
AcDbLine
 10
568.9689514079067
 20
30.96153314249341
 30
0.0
 11
568.9689514079067
 21
22.61752871326485
 31
0.0
  0
LINE
  5
2523
330
24C3
100
AcDbEntity
  8
Bemaßung
 62
     0
370
    -2
100
AcDbLine
 10
608.9689514079065
 20
23.86752871326485
 30
0.0
 11
568.9689514079067
 21
23.86752871326485
 31
0.0
  0
INSERT
  5
2524
330
24C3
100
AcDbEntity
  8
Bemaßung
 62
     0
370
    -2
100
AcDbBlockReference
  2
_Oblique
 10
608.9689514079065
 20
23.86752871326485
 30
0.0
 41
2.5
 42
2.5
 43
2.5
  0
INSERT
  5
2525
330
24C3
100
AcDbEntity
  8
Bemaßung
 62
     0
370
    -2
100
AcDbBlockReference
  2
_Oblique
 10
568.9689514079067
 20
23.86752871326485
 30
0.0
 41
2.5
 42
2.5
 43
2.5
 50
180.0
  0
MTEXT
  5
2526
330
24C3
100
AcDbEntity
  8
Bemaßung
 62
     0
100
AcDbMText
 10
588.9689514079066
 20
25.74252871326485
 30
0.0
 40
2.5
 41
0.0
 71
     5
 72
     1
  1
0-40
  7
RomanS
 73
     1
 44
1.0
1001
ACAD
1000
MTEXTBEGIN
1070
    73
1070
     1
1070
    44
1040
1.0
1070
    74
1070
     0
1000
MTEXTEND
  0
POINT
  5
2527
330
24C3
100
AcDbEntity
  8
Defpoints
 62
     0
100
AcDbPoint
 10
608.9689514079065
 20
31.58653314249341
 30
0.0
  0
POINT
  5
2528
330
24C3
100
AcDbEntity
  8
Defpoints
 62
     0
100
AcDbPoint
 10
568.9689514079067
 20
31.58653314249341
 30
0.0
  0
POINT
  5
2529
330
24C3
100
AcDbEntity
  8
Defpoints
 62
     0
100
AcDbPoint
 10
568.9689514079067
 20
23.86752871326485
 30
0.0
  0
ENDBLK
  5
24CE
330
24C3
100
AcDbEntity
  8
0
100
AcDbBlockEnd
  0
BLOCK
  5
2536
330
252C
100
AcDbEntity
  8
0
100
AcDbBlockBegin
  2
*D15
 70
     1
 10
0.0
 20
0.0
 30
0.0
  3
*D15
  1

  0
LINE
  5
2544
330
252C
100
AcDbEntity
  8
Bemaßung
 62
     0
370
    -2
100
AcDbLine
 10
668.3439514079067
 20
31.58653314249341
 30
0.0
 11
661.0020010106445
 21
31.58653314249341
 31
0.0
  0
LINE
  5
2545
330
252C
100
AcDbEntity
  8
Bemaßung
 62
     0
370
    -2
100
AcDbLine
 10
668.3439514079067
 20
71.58653314249341
 30
0.0
 11
661.0020010106445
 21
71.58653314249341
 31
0.0
  0
LINE
  5
2546
330
252C
100
AcDbEntity
  8
Bemaßung
 62
     0
370
    -2
100
AcDbLine
 10
662.2520010106442
 20
31.58653314249341
 30
0.0
 11
662.2520010106442
 21
71.58653314249341
 31
0.0
  0
INSERT
  5
2547
330
252C
100
AcDbEntity
  8
Bemaßung
 62
     0
370
    -2
100
AcDbBlockReference
  2
_Oblique
 10
662.2520010106442
 20
31.58653314249341
 30
0.0
 41
2.5
 42
2.5
 43
2.5
 50
270.0
  0
INSERT
  5
2548
330
252C
100
AcDbEntity
  8
Bemaßung
 62
     0
370
    -2
100
AcDbBlockReference
  2
_Oblique
 10
662.2520010106442
 20
71.58653314249341
 30
0.0
 41
2.5
 42
2.5
 43
2.5
 50
90.0
  0
MTEXT
  5
2549
330
252C
100
AcDbEntity
  8
Bemaßung
 62
     0
100
AcDbMText
 10
660.3770010106442
 20
51.58653314249351
 30
0.0
 40
2.5
 41
0.0
 71
     5
 72
     1
  1
0-40
  7
RomanS
 11
0.0000000000000001
 21
1.0
 31
0.0
 73
     1
 44
1.0
1001
ACAD
1000
MTEXTBEGIN
1070
    73
1070
     1
1070
    44
1040
1.0
1070
    74
1070
     0
1000
MTEXTEND
  0
POINT
  5
254A
330
252C
100
AcDbEntity
  8
Defpoints
 62
     0
100
AcDbPoint
 10
668.9689514079067
 20
31.58653314249341
 30
0.0
  0
POINT
  5
254B
330
252C
100
AcDbEntity
  8
Defpoints
 62
     0
100
AcDbPoint
 10
668.9689514079067
 20
71.58653314249341
 30
0.0
  0
POINT
  5
254C
330
252C
100
AcDbEntity
  8
Defpoints
 62
     0
100
AcDbPoint
 10
662.2520010106442
 20
71.58653314249341
 30
0.0
  0
ENDBLK
  5
2537
330
252C
100
AcDbEntity
  8
0
100
AcDbBlockEnd
  0
BLOCK
  5
2542
330
2538
100
AcDbEntity
  8
0
100
AcDbBlockBegin
  2
*D16
 70
     1
 10
0.0
 20
0.0
 30
0.0
  3
*D16
  1

  0
LINE
  5
2598
330
2538
100
AcDbEntity
  8
Bemaßung
 62
     0
370
    -2
100
AcDbLine
 10
708.9689514079065
 20
30.96153314249341
 30
0.0
 11
708.9689514079065
 21
25.53953092787913
 31
0.0
  0
LINE
  5
2599
330
2538
100
AcDbEntity
  8
Bemaßung
 62
     0
370
    -2
100
AcDbLine
 10
668.9689514079067
 20
30.96153314249341
 30
0.0
 11
668.9689514079067
 21
25.53953092787913
 31
0.0
  0
LINE
  5
259A
330
2538
100
AcDbEntity
  8
Bemaßung
 62
     0
370
    -2
100
AcDbLine
 10
708.9689514079065
 20
26.78953092787913
 30
0.0
 11
668.9689514079067
 21
26.78953092787913
 31
0.0
  0
INSERT
  5
259B
330
2538
100
AcDbEntity
  8
Bemaßung
 62
     0
370
    -2
100
AcDbBlockReference
  2
_Oblique
 10
708.9689514079065
 20
26.78953092787913
 30
0.0
 41
2.5
 42
2.5
 43
2.5
  0
INSERT
  5
259C
330
2538
100
AcDbEntity
  8
Bemaßung
 62
     0
370
    -2
100
AcDbBlockReference
  2
_Oblique
 10
668.9689514079067
 20
26.78953092787913
 30
0.0
 41
2.5
 42
2.5
 43
2.5
 50
180.0
  0
MTEXT
  5
259D
330
2538
100
AcDbEntity
  8
Bemaßung
 62
     0
100
AcDbMText
 10
688.9689514079066
 20
28.66453092787913
 30
0.0
 40
2.5
 41
0.0
 71
     5
 72
     1
  1
0-40
  7
RomanS
 73
     1
 44
1.0
1001
ACAD
1000
MTEXTBEGIN
1070
    73
1070
     1
1070
    44
1040
1.0
1070
    74
1070
     0
1000
MTEXTEND
  0
POINT
  5
259E
330
2538
100
AcDbEntity
  8
Defpoints
 62
     0
100
AcDbPoint
 10
708.9689514079065
 20
31.58653314249341
 30
0.0
  0
POINT
  5
259F
330
2538
100
AcDbEntity
  8
Defpoints
 62
     0
100
AcDbPoint
 10
668.9689514079067
 20
31.58653314249341
 30
0.0
  0
POINT
  5
25A0
330
2538
100
AcDbEntity
  8
Defpoints
 62
     0
100
AcDbPoint
 10
668.9689514079067
 20
26.78953092787913
 30
0.0
  0
ENDBLK
  5
2543
330
2538
100
AcDbEntity
  8
0
100
AcDbBlockEnd
  0
BLOCK
  5
2566
330
255C
100
AcDbEntity
  8
0
100
AcDbBlockBegin
  2
*D17
 70
     1
 10
0.0
 20
0.0
 30
0.0
  3
*D17
  1

  0
LINE
  5
2574
330
255C
100
AcDbEntity
  8
Bemaßung
 62
     0
370
    -2
100
AcDbLine
 10
737.5939514079068
 20
31.58653314249341
 30
0.0
 11
744.9359018051691
 21
31.5865331424934
 31
0.0
  0
LINE
  5
2575
330
255C
100
AcDbEntity
  8
Bemaßung
 62
     0
370
    -2
100
AcDbLine
 10
737.5939514079068
 20
71.58653314249341
 30
0.0
 11
744.9359018051691
 21
71.58653314249341
 31
0.0
  0
LINE
  5
2576
330
255C
100
AcDbEntity
  8
Bemaßung
 62
     0
370
    -2
100
AcDbLine
 10
743.6859018051691
 20
31.58653314249341
 30
0.0
 11
743.6859018051691
 21
71.58653314249341
 31
0.0
  0
INSERT
  5
2577
330
255C
100
AcDbEntity
  8
Bemaßung
 62
     0
370
    -2
100
AcDbBlockReference
  2
_Oblique
 10
743.6859018051691
 20
31.58653314249341
 30
0.0
 41
2.5
 42
2.5
 43
2.5
 50
270.0
  0
INSERT
  5
2578
330
255C
100
AcDbEntity
  8
Bemaßung
 62
     0
370
    -2
100
AcDbBlockReference
  2
_Oblique
 10
743.6859018051691
 20
71.58653314249341
 30
0.0
 41
2.5
 42
2.5
 43
2.5
 50
90.0
  0
MTEXT
  5
2579
330
255C
100
AcDbEntity
  8
Bemaßung
 62
     0
100
AcDbMText
 10
741.8109018051691
 20
51.58653314249353
 30
0.0
 40
2.5
 41
0.0
 71
     5
 72
     1
  1
0-40
  7
RomanS
 11
0.0000000000000001
 21
1.0
 31
0.0
 73
     1
 44
1.0
1001
ACAD
1000
MTEXTBEGIN
1070
    73
1070
     1
1070
    44
1040
1.0
1070
    74
1070
     0
1000
MTEXTEND
  0
POINT
  5
257A
330
255C
100
AcDbEntity
  8
Defpoints
 62
     0
100
AcDbPoint
 10
736.9689514079068
 20
31.58653314249341
 30
0.0
  0
POINT
  5
257B
330
255C
100
AcDbEntity
  8
Defpoints
 62
     0
100
AcDbPoint
 10
736.9689514079068
 20
71.58653314249341
 30
0.0
  0
POINT
  5
257C
330
255C
100
AcDbEntity
  8
Defpoints
 62
     0
100
AcDbPoint
 10
743.6859018051691
 20
71.58653314249341
 30
0.0
  0
ENDBLK
  5
2567
330
255C
100
AcDbEntity
  8
0
100
AcDbBlockEnd
  0
BLOCK
  5
2572
330
2568
100
AcDbEntity
  8
0
100
AcDbBlockBegin
  2
*D18
 70
     1
 10
0.0
 20
0.0
 30
0.0
  3
*D18
  1

  0
LINE
  5
25B3
330
2568
100
AcDbEntity
  8
Bemaßung
 62
     0
370
    -2
100
AcDbLine
 10
696.9689514079068
 20
24.03601019582789
 30
0.0
 11
696.9689514079068
 21
19.49399365877298
 31
0.0
  0
LINE
  5
25B4
330
2568
100
AcDbEntity
  8
Bemaßung
 62
     0
370
    -2
100
AcDbLine
 10
736.9689514079068
 20
28.82760976760597
 30
0.0
 11
736.9689514079068
 21
19.49399365877298
 31
0.0
  0
LINE
  5
25B5
330
2568
100
AcDbEntity
  8
Bemaßung
 62
     0
370
    -2
100
AcDbLine
 10
696.9689514079068
 20
20.74399365877298
 30
0.0
 11
736.9689514079068
 21
20.74399365877298
 31
0.0
  0
INSERT
  5
25B6
330
2568
100
AcDbEntity
  8
Bemaßung
 62
     0
370
    -2
100
AcDbBlockReference
  2
_Oblique
 10
696.9689514079068
 20
20.74399365877298
 30
0.0
 41
2.5
 42
2.5
 43
2.5
 50
180.0
  0
INSERT
  5
25B7
330
2568
100
AcDbEntity
  8
Bemaßung
 62
     0
370
    -2
100
AcDbBlockReference
  2
_Oblique
 10
736.9689514079068
 20
20.74399365877298
 30
0.0
 41
2.5
 42
2.5
 43
2.5
  0
MTEXT
  5
25B8
330
2568
100
AcDbEntity
  8
Bemaßung
 62
     0
100
AcDbMText
 10
716.9689514079068
 20
22.61899365877298
 30
0.0
 40
2.5
 41
0.0
 71
     5
 72
     1
  1
0-40
  7
RomanS
 73
     1
 44
1.0
1001
ACAD
1000
MTEXTBEGIN
1070
    73
1070
     1
1070
    44
1040
1.0
1070
    74
1070
     0
1000
MTEXTEND
  0
POINT
  5
25B9
330
2568
100
AcDbEntity
  8
Defpoints
 62
     0
100
AcDbPoint
 10
696.9689514079068
 20
24.66101019582789
 30
0.0
  0
POINT
  5
25BA
330
2568
100
AcDbEntity
  8
Defpoints
 62
     0
100
AcDbPoint
 10
736.9689514079068
 20
29.45260976760597
 30
0.0
  0
POINT
  5
25BB
330
2568
100
AcDbEntity
  8
Defpoints
 62
     0
100
AcDbPoint
 10
736.9689514079068
 20
20.74399365877298
 30
0.0
  0
ENDBLK
  5
2573
330
2568
100
AcDbEntity
  8
0
100
AcDbBlockEnd
  0
BLOCK
  5
25C8
330
25BE
100
AcDbEntity
  8
0
100
AcDbBlockBegin
  2
*D19
 70
     1
 10
0.0
 20
0.0
 30
0.0
  3
*D19
  1

  0
LINE
  5
25E8
330
25BE
100
AcDbEntity
  8
Bemaßung
 62
     0
370
    -2
100
AcDbLine
 10
768.3439514079068
 20
31.58653314249341
 30
0.0
 11
761.0020010106445
 21
31.58653314249341
 31
0.0
  0
LINE
  5
25E9
330
25BE
100
AcDbEntity
  8
Bemaßung
 62
     0
370
    -2
100
AcDbLine
 10
768.3439514079068
 20
71.58653314249341
 30
0.0
 11
761.0020010106445
 21
71.58653314249341
 31
0.0
  0
LINE
  5
25EA
330
25BE
100
AcDbEntity
  8
Bemaßung
 62
     0
370
    -2
100
AcDbLine
 10
762.2520010106446
 20
31.58653314249341
 30
0.0
 11
762.2520010106446
 21
71.58653314249341
 31
0.0
  0
INSERT
  5
25EB
330
25BE
100
AcDbEntity
  8
Bemaßung
 62
     0
370
    -2
100
AcDbBlockReference
  2
_Oblique
 10
762.2520010106446
 20
31.58653314249341
 30
0.0
 41
2.5
 42
2.5
 43
2.5
 50
270.0
  0
INSERT
  5
25EC
330
25BE
100
AcDbEntity
  8
Bemaßung
 62
     0
370
    -2
100
AcDbBlockReference
  2
_Oblique
 10
762.2520010106446
 20
71.58653314249341
 30
0.0
 41
2.5
 42
2.5
 43
2.5
 50
90.0
  0
MTEXT
  5
25ED
330
25BE
100
AcDbEntity
  8
Bemaßung
 62
     0
100
AcDbMText
 10
760.3770010106445
 20
51.58653314249352
 30
0.0
 40
2.5
 41
0.0
 71
     5
 72
     1
  1
0-40
  7
RomanS
 11
0.0000000000000001
 21
1.0
 31
0.0
 73
     1
 44
1.0
1001
ACAD
1000
MTEXTBEGIN
1070
    73
1070
     1
1070
    44
1040
1.0
1070
    74
1070
     0
1000
MTEXTEND
  0
POINT
  5
25EE
330
25BE
100
AcDbEntity
  8
Defpoints
 62
     0
100
AcDbPoint
 10
768.9689514079068
 20
31.58653314249341
 30
0.0
  0
POINT
  5
25EF
330
25BE
100
AcDbEntity
  8
Defpoints
 62
     0
100
AcDbPoint
 10
768.9689514079068
 20
71.58653314249341
 30
0.0
  0
POINT
  5
25F0
330
25BE
100
AcDbEntity
  8
Defpoints
 62
     0
100
AcDbPoint
 10
762.2520010106446
 20
71.58653314249341
 30
0.0
  0
ENDBLK
  5
25C9
330
25BE
100
AcDbEntity
  8
0
100
AcDbBlockEnd
  0
BLOCK
  5
25D4
330
25CA
100
AcDbEntity
  8
0
100
AcDbBlockBegin
  2
*D20
 70
     1
 10
0.0
 20
0.0
 30
0.0
  3
*D20
  1

  0
LINE
  5
25F1
330
25CA
100
AcDbEntity
  8
Bemaßung
 62
     0
370
    -2
100
AcDbLine
 10
808.9689514079065
 20
30.96153314249341
 30
0.0
 11
808.9689514079065
 21
22.61752871326485
 31
0.0
  0
LINE
  5
25F2
330
25CA
100
AcDbEntity
  8
Bemaßung
 62
     0
370
    -2
100
AcDbLine
 10
768.9689514079068
 20
30.96153314249341
 30
0.0
 11
768.9689514079068
 21
22.61752871326485
 31
0.0
  0
LINE
  5
25F3
330
25CA
100
AcDbEntity
  8
Bemaßung
 62
     0
370
    -2
100
AcDbLine
 10
808.9689514079065
 20
23.86752871326485
 30
0.0
 11
768.9689514079068
 21
23.86752871326485
 31
0.0
  0
INSERT
  5
25F4
330
25CA
100
AcDbEntity
  8
Bemaßung
 62
     0
370
    -2
100
AcDbBlockReference
  2
_Oblique
 10
808.9689514079065
 20
23.86752871326485
 30
0.0
 41
2.5
 42
2.5
 43
2.5
  0
INSERT
  5
25F5
330
25CA
100
AcDbEntity
  8
Bemaßung
 62
     0
370
    -2
100
AcDbBlockReference
  2
_Oblique
 10
768.9689514079068
 20
23.86752871326485
 30
0.0
 41
2.5
 42
2.5
 43
2.5
 50
180.0
  0
MTEXT
  5
25F6
330
25CA
100
AcDbEntity
  8
Bemaßung
 62
     0
100
AcDbMText
 10
788.9689514079068
 20
25.74252871326485
 30
0.0
 40
2.5
 41
0.0
 71
     5
 72
     1
  1
0-40
  7
RomanS
 73
     1
 44
1.0
1001
ACAD
1000
MTEXTBEGIN
1070
    73
1070
     1
1070
    44
1040
1.0
1070
    74
1070
     0
1000
MTEXTEND
  0
POINT
  5
25F7
330
25CA
100
AcDbEntity
  8
Defpoints
 62
     0
100
AcDbPoint
 10
808.9689514079065
 20
31.58653314249341
 30
0.0
  0
POINT
  5
25F8
330
25CA
100
AcDbEntity
  8
Defpoints
 62
     0
100
AcDbPoint
 10
768.9689514079068
 20
31.58653314249341
 30
0.0
  0
POINT
  5
25F9
330
25CA
100
AcDbEntity
  8
Defpoints
 62
     0
100
AcDbPoint
 10
768.9689514079068
 20
23.86752871326485
 30
0.0
  0
ENDBLK
  5
25D5
330
25CA
100
AcDbEntity
  8
0
100
AcDbBlockEnd
  0
BLOCK
  5
2610
330
2606
100
AcDbEntity
  8
0
100
AcDbBlockBegin
  2
*D21
 70
     1
 10
0.0
 20
0.0
 30
0.0
  3
*D21
  1

  0
LINE
  5
261E
330
2606
100
AcDbEntity
  8
Bemaßung
 62
     0
370
    -2
100
AcDbLine
 10
537.5939514079074
 20
-68.41346685750659
 30
0.0
 11
544.9359018051697
 21
-68.41346685750661
 31
0.0
  0
LINE
  5
261F
330
2606
100
AcDbEntity
  8
Bemaßung
 62
     0
370
    -2
100
AcDbLine
 10
537.5939514079074
 20
-28.41346685750659
 30
0.0
 11
544.9359018051697
 21
-28.41346685750659
 31
0.0
  0
LINE
  5
2620
330
2606
100
AcDbEntity
  8
Bemaßung
 62
     0
370
    -2
100
AcDbLine
 10
543.6859018051697
 20
-68.41346685750659
 30
0.0
 11
543.6859018051697
 21
-28.41346685750659
 31
0.0
  0
INSERT
  5
2621
330
2606
100
AcDbEntity
  8
Bemaßung
 62
     0
370
    -2
100
AcDbBlockReference
  2
_Oblique
 10
543.6859018051697
 20
-68.41346685750659
 30
0.0
 41
2.5
 42
2.5
 43
2.5
 50
270.0
  0
INSERT
  5
2622
330
2606
100
AcDbEntity
  8
Bemaßung
 62
     0
370
    -2
100
AcDbBlockReference
  2
_Oblique
 10
543.6859018051697
 20
-28.41346685750659
 30
0.0
 41
2.5
 42
2.5
 43
2.5
 50
90.0
  0
MTEXT
  5
2623
330
2606
100
AcDbEntity
  8
Bemaßung
 62
     0
100
AcDbMText
 10
541.8109018051697
 20
-48.4134668575065
 30
0.0
 40
2.5
 41
0.0
 71
     5
 72
     1
  1
0-40
  7
RomanS
 11
0.0000000000000001
 21
1.0
 31
0.0
 73
     1
 44
1.0
1001
ACAD
1000
MTEXTBEGIN
1070
    73
1070
     1
1070
    44
1040
1.0
1070
    74
1070
     0
1000
MTEXTEND
  0
POINT
  5
2624
330
2606
100
AcDbEntity
  8
Defpoints
 62
     0
100
AcDbPoint
 10
536.9689514079074
 20
-68.41346685750659
 30
0.0
  0
POINT
  5
2625
330
2606
100
AcDbEntity
  8
Defpoints
 62
     0
100
AcDbPoint
 10
536.9689514079074
 20
-28.41346685750659
 30
0.0
  0
POINT
  5
2626
330
2606
100
AcDbEntity
  8
Defpoints
 62
     0
100
AcDbPoint
 10
543.6859018051697
 20
-28.41346685750659
 30
0.0
  0
ENDBLK
  5
2611
330
2606
100
AcDbEntity
  8
0
100
AcDbBlockEnd
  0
BLOCK
  5
261C
330
2612
100
AcDbEntity
  8
0
100
AcDbBlockBegin
  2
*D22
 70
     1
 10
0.0
 20
0.0
 30
0.0
  3
*D22
  1

  0
LINE
  5
2627
330
2612
100
AcDbEntity
  8
Bemaßung
 62
     0
370
    -2
100
AcDbLine
 10
496.9689514079076
 20
-69.03846685750659
 30
0.0
 11
496.9689514079076
 21
-77.38247128673515
 31
0.0
  0
LINE
  5
2628
330
2612
100
AcDbEntity
  8
Bemaßung
 62
     0
370
    -2
100
AcDbLine
 10
536.9689514079074
 20
-69.03846685750659
 30
0.0
 11
536.9689514079074
 21
-77.38247128673515
 31
0.0
  0
LINE
  5
2629
330
2612
100
AcDbEntity
  8
Bemaßung
 62
     0
370
    -2
100
AcDbLine
 10
496.9689514079076
 20
-76.13247128673515
 30
0.0
 11
536.9689514079074
 21
-76.13247128673515
 31
0.0
  0
INSERT
  5
262A
330
2612
100
AcDbEntity
  8
Bemaßung
 62
     0
370
    -2
100
AcDbBlockReference
  2
_Oblique
 10
496.9689514079076
 20
-76.13247128673515
 30
0.0
 41
2.5
 42
2.5
 43
2.5
 50
180.0
  0
INSERT
  5
262B
330
2612
100
AcDbEntity
  8
Bemaßung
 62
     0
370
    -2
100
AcDbBlockReference
  2
_Oblique
 10
536.9689514079074
 20
-76.13247128673515
 30
0.0
 41
2.5
 42
2.5
 43
2.5
  0
MTEXT
  5
262C
330
2612
100
AcDbEntity
  8
Bemaßung
 62
     0
100
AcDbMText
 10
516.9689514079075
 20
-74.25747128673515
 30
0.0
 40
2.5
 41
0.0
 71
     5
 72
     1
  1
0-40
  7
RomanS
 73
     1
 44
1.0
1001
ACAD
1000
MTEXTBEGIN
1070
    73
1070
     1
1070
    44
1040
1.0
1070
    74
1070
     0
1000
MTEXTEND
  0
POINT
  5
262D
330
2612
100
AcDbEntity
  8
Defpoints
 62
     0
100
AcDbPoint
 10
496.9689514079076
 20
-68.41346685750659
 30
0.0
  0
POINT
  5
262E
330
2612
100
AcDbEntity
  8
Defpoints
 62
     0
100
AcDbPoint
 10
536.9689514079074
 20
-68.41346685750659
 30
0.0
  0
POINT
  5
262F
330
2612
100
AcDbEntity
  8
Defpoints
 62
     0
100
AcDbPoint
 10
536.9689514079074
 20
-76.13247128673515
 30
0.0
  0
ENDBLK
  5
261D
330
2612
100
AcDbEntity
  8
0
100
AcDbBlockEnd
  0
BLOCK
  5
26CC
330
26CB
100
AcDbEntity
  8
0
100
AcDbBlockBegin
  2
*D23
 70
     1
 10
0.0
 20
0.0
 30
0.0
  3
*D23
  1

  0
LINE
  5
284B
330
26CB
100
AcDbEntity
  8
Bemaßung
 62
     0
370
    -2
100
AcDbLine
 10
161.1513091061351
 20
106.4257503755457
 30
0.0
 11
161.1513091061351
 21
104.7241419454008
 31
0.0
  0
LINE
  5
284C
330
26CB
100
AcDbEntity
  8
Bemaßung
 62
     0
370
    -2
100
AcDbLine
 10
180.1513091061347
 20
111.1627816946985
 30
0.0
 11
180.1513091061347
 21
104.7241419454008
 31
0.0
  0
LINE
  5
284D
330
26CB
100
AcDbEntity
  8
Bemaßung
 62
     0
370
    -2
100
AcDbLine
 10
161.1513091061351
 20
105.9741419454008
 30
0.0
 11
180.1513091061347
 21
105.9741419454008
 31
0.0
  0
INSERT
  5
284E
330
26CB
100
AcDbEntity
  8
Bemaßung
 62
     0
370
    -2
100
AcDbBlockReference
  2
_Oblique
 10
161.1513091061351
 20
105.9741419454008
 30
0.0
 41
2.5
 42
2.5
 43
2.5
 50
180.0
  0
INSERT
  5
284F
330
26CB
100
AcDbEntity
  8
Bemaßung
 62
     0
370
    -2
100
AcDbBlockReference
  2
_Oblique
 10
180.1513091061347
 20
105.9741419454008
 30
0.0
 41
2.5
 42
2.5
 43
2.5
  0
MTEXT
  5
2850
330
26CB
100
AcDbEntity
  8
Bemaßung
 62
     0
100
AcDbMText
 10
170.6513091061349
 20
107.8491419454008
 30
0.0
 40
2.5
 41
0.0
 71
     5
 72
     1
  1
19
  7
RomanS
 73
     1
 44
1.0
1001
ACAD
1000
MTEXTBEGIN
1070
    73
1070
     1
1070
    44
1040
1.0
1070
    74
1070
     0
1000
MTEXTEND
  0
POINT
  5
2851
330
26CB
100
AcDbEntity
  8
Defpoints
 62
     0
100
AcDbPoint
 10
161.1513091061351
 20
107.0507503755457
 30
0.0
  0
POINT
  5
2852
330
26CB
100
AcDbEntity
  8
Defpoints
 62
     0
100
AcDbPoint
 10
180.1513091061347
 20
111.7877816946985
 30
0.0
  0
POINT
  5
2853
330
26CB
100
AcDbEntity
  8
Defpoints
 62
     0
100
AcDbPoint
 10
180.1513091061347
 20
105.9741419454008
 30
0.0
  0
ENDBLK
  5
26CD
330
26CB
100
AcDbEntity
  8
0
100
AcDbBlockEnd
  0
BLOCK
  5
2769
330
2768
100
AcDbEntity
  8
0
100
AcDbBlockBegin
  2
*D24
 70
     1
 10
0.0
 20
0.0
 30
0.0
  3
*D24
  1

  0
LINE
  5
27B3
330
2768
100
AcDbEntity
  8
Bemaßung
 62
     0
370
    -2
100
AcDbLine
 10
131.1513091061351
 20
81.16278169469856
 30
0.0
 11
131.1513091061351
 21
75.02316113759616
 31
0.0
  0
LINE
  5
27B4
330
2768
100
AcDbEntity
  8
Bemaßung
 62
     0
370
    -2
100
AcDbLine
 10
161.1513091061351
 20
81.16278169469856
 30
0.0
 11
161.1513091061351
 21
75.02316113759616
 31
0.0
  0
LINE
  5
27B5
330
2768
100
AcDbEntity
  8
Bemaßung
 62
     0
370
    -2
100
AcDbLine
 10
131.1513091061351
 20
76.27316113759616
 30
0.0
 11
161.1513091061351
 21
76.27316113759616
 31
0.0
  0
INSERT
  5
27B6
330
2768
100
AcDbEntity
  8
Bemaßung
 62
     0
370
    -2
100
AcDbBlockReference
  2
_Oblique
 10
131.1513091061351
 20
76.27316113759616
 30
0.0
 41
2.5
 42
2.5
 43
2.5
 50
180.0
  0
INSERT
  5
27B7
330
2768
100
AcDbEntity
  8
Bemaßung
 62
     0
370
    -2
100
AcDbBlockReference
  2
_Oblique
 10
161.1513091061351
 20
76.27316113759616
 30
0.0
 41
2.5
 42
2.5
 43
2.5
  0
MTEXT
  5
27B8
330
2768
100
AcDbEntity
  8
Bemaßung
 62
     0
100
AcDbMText
 10
146.1513091061351
 20
78.14816113759616
 30
0.0
 40
2.5
 41
0.0
 71
     5
 72
     1
  1
30
  7
RomanS
 73
     1
 44
1.0
1001
ACAD
1000
MTEXTBEGIN
1070
    73
1070
     1
1070
    44
1040
1.0
1070
    74
1070
     0
1000
MTEXTEND
  0
POINT
  5
27B9
330
2768
100
AcDbEntity
  8
Defpoints
 62
     0
100
AcDbPoint
 10
131.1513091061351
 20
81.78778169469856
 30
0.0
  0
POINT
  5
27BA
330
2768
100
AcDbEntity
  8
Defpoints
 62
     0
100
AcDbPoint
 10
161.1513091061351
 20
81.78778169469856
 30
0.0
  0
POINT
  5
27BB
330
2768
100
AcDbEntity
  8
Defpoints
 62
     0
100
AcDbPoint
 10
161.1513091061351
 20
76.27316113759616
 30
0.0
  0
ENDBLK
  5
276A
330
2768
100
AcDbEntity
  8
0
100
AcDbBlockEnd
  0
BLOCK
  5
2781
330
2780
100
AcDbEntity
  8
0
100
AcDbBlockBegin
  2
*D25
 70
     1
 10
0.0
 20
0.0
 30
0.0
  3
*D25
  1

  0
LINE
  5
27BC
330
2780
100
AcDbEntity
  8
Bemaßung
 62
     0
370
    -2
100
AcDbLine
 10
130.5263091061351
 20
81.78778169469856
 30
0.0
 11
124.9314766676734
 21
81.78778169469856
 31
0.0
  0
LINE
  5
27BD
330
2780
100
AcDbEntity
  8
Bemaßung
 62
     0
370
    -2
100
AcDbLine
 10
130.5263091061351
 20
111.7877816946985
 30
0.0
 11
124.9314766676734
 21
111.7877816946985
 31
0.0
  0
LINE
  5
27BE
330
2780
100
AcDbEntity
  8
Bemaßung
 62
     0
370
    -2
100
AcDbLine
 10
126.1814766676734
 20
81.78778169469856
 30
0.0
 11
126.1814766676734
 21
111.7877816946985
 31
0.0
  0
INSERT
  5
27BF
330
2780
100
AcDbEntity
  8
Bemaßung
 62
     0
370
    -2
100
AcDbBlockReference
  2
_Oblique
 10
126.1814766676734
 20
81.78778169469856
 30
0.0
 41
2.5
 42
2.5
 43
2.5
 50
270.0
  0
INSERT
  5
27C0
330
2780
100
AcDbEntity
  8
Bemaßung
 62
     0
370
    -2
100
AcDbBlockReference
  2
_Oblique
 10
126.1814766676734
 20
111.7877816946985
 30
0.0
 41
2.5
 42
2.5
 43
2.5
 50
90.0
  0
MTEXT
  5
27C1
330
2780
100
AcDbEntity
  8
Bemaßung
 62
     0
100
AcDbMText
 10
124.3064766676734
 20
96.78778169469858
 30
0.0
 40
2.5
 41
0.0
 71
     5
 72
     1
  1
30
  7
RomanS
 11
0.0000000000000001
 21
1.0
 31
0.0
 73
     1
 44
1.0
1001
ACAD
1000
MTEXTBEGIN
1070
    73
1070
     1
1070
    44
1040
1.0
1070
    74
1070
     0
1000
MTEXTEND
  0
POINT
  5
27C2
330
2780
100
AcDbEntity
  8
Defpoints
 62
     0
100
AcDbPoint
 10
131.1513091061351
 20
81.78778169469856
 30
0.0
  0
POINT
  5
27C3
330
2780
100
AcDbEntity
  8
Defpoints
 62
     0
100
AcDbPoint
 10
131.1513091061351
 20
111.7877816946985
 30
0.0
  0
POINT
  5
27C4
330
2780
100
AcDbEntity
  8
Defpoints
 62
     0
100
AcDbPoint
 10
126.1814766676734
 20
111.7877816946985
 30
0.0
  0
ENDBLK
  5
2782
330
2780
100
AcDbEntity
  8
0
100
AcDbBlockEnd
  0
BLOCK
  5
27C7
330
27C6
100
AcDbEntity
  8
0
100
AcDbBlockBegin
  2
*D26
 70
     1
 10
0.0
 20
0.0
 30
0.0
  3
*D26
  1

  0
LINE
  5
2854
330
27C6
100
AcDbEntity
  8
Bemaßung
 62
     0
370
    -2
100
AcDbLine
 10
180.7763091061346
 20
111.7877816946985
 30
0.0
 11
187.8544350926822
 21
111.7877816946985
 31
0.0
  0
LINE
  5
2855
330
27C6
100
AcDbEntity
  8
Bemaßung
 62
     0
370
    -2
100
AcDbLine
 10
186.6044350926822
 20
111.7877816946985
 30
0.0
 11
186.6044350926822
 21
159.7877816946986
 31
0.0
  0
INSERT
  5
2856
330
27C6
100
AcDbEntity
  8
Bemaßung
 62
     0
370
    -2
100
AcDbBlockReference
  2
_Oblique
 10
186.6044350926822
 20
111.7877816946985
 30
0.0
 41
2.5
 42
2.5
 43
2.5
 50
270.0
  0
MTEXT
  5
2857
330
27C6
100
AcDbEntity
  8
Bemaßung
 62
     0
100
AcDbMText
 10
184.7294350926822
 20
135.7877816946986
 30
0.0
 40
2.5
 41
0.0
 71
     5
 72
     1
  1
Bestellmaß
  7
RomanS
 11
0.0000000000000001
 21
1.0
 31
0.0
 73
     1
 44
1.0
1001
ACAD
1000
MTEXTBEGIN
1070
    73
1070
     1
1070
    44
1040
1.0
1070
    74
1070
     0
1000
MTEXTEND
  0
POINT
  5
2858
330
27C6
100
AcDbEntity
  8
Defpoints
 62
     0
100
AcDbPoint
 10
180.1513091061347
 20
111.7877816946985
 30
0.0
  0
POINT
  5
2859
330
27C6
100
AcDbEntity
  8
Defpoints
 62
     0
100
AcDbPoint
 10
180.1513091061342
 20
159.7877816946986
 30
0.0
  0
POINT
  5
285A
330
27C6
100
AcDbEntity
  8
Defpoints
 62
     0
100
AcDbPoint
 10
186.6044350926822
 20
159.7877816946986
 30
0.0
  0
ENDBLK
  5
27C8
330
27C6
100
AcDbEntity
  8
0
100
AcDbBlockEnd
  0
BLOCK
  5
281F
330
281E
100
AcDbEntity
  8
0
100
AcDbBlockBegin
  2
_None
 70
     0
 10
0.0
 20
0.0
 30
0.0
  3
_None
  1

  0
ENDBLK
  5
2820
330
281E
100
AcDbEntity
  8
0
100
AcDbBlockEnd
  0
ENDSEC
  0
SECTION
  2
ENTITIES
  0
HATCH
  5
1F13
330
1F
100
AcDbEntity
  8
Schraffur
 62
     5
100
AcDbHatch
 10
0.0
 20
0.0
 30
0.0
210
0.0
220
0.0
230
1.0
  2
STEEL
 70
     0
 71
     0
 91
        1
 92
        1
 93
        4
 72
     1
 10
80.21185881909245
 20
69.91454154400362
 11
56.21185881909259
 21
69.91454154400364
 72
     1
 10
56.21185881909259
 20
69.91454154400364
 11
56.21185881909259
 21
21.9145415440035
 72
     1
 10
56.21185881909259
 20
21.9145415440035
 11
80.21185881909245
 21
21.9145415440035
 72
     1
 10
80.21185881909245
 20
21.9145415440035
 11
80.21185881909245
 21
69.91454154400362
 97
        0
 75
     0
 76
     1
 52
90.0
 41
2.0
 77
     0
 78
     2
 53
135.0
 43
0.0
 44
0.0
 45
-4.490128060534575
 46
-4.490128060534575
 79
     0
 53
135.0
 43
-3.174999999999998
 44
0.0000000000000002
 45
-4.490128060534575
 46
-4.490128060534575
 79
     0
 98
        4
 10
0.0
 20
0.0
 10
-14.26176893671976
 20
19.91454125613183
 10
-14.26176893671976
 20
19.91454125613183
 10
74.29501722594976
 20
58.42592732789412
1001
ACAD
1010
0.0
1020
0.0
1030
0.0
  0
LWPOLYLINE
  5
1F14
330
1F
100
AcDbEntity
  8
Sohlbank
100
AcDbPolyline
 90
       19
 70
     0
 43
0.0
 10
34.21185881909247
 20
69.91454154400364
 10
34.21185881909247
 20
57.31454204418978
 10
34.21185881909333
 20
55.10523857296711
 42
0.5205670505517423
 10
38.2379192490704
 20
52.28616071060938
 10
42.44059292531011
 20
53.81580883309482
 42
0.2679491924311182
 10
42.76198673015341
 20
54.19883105465419
 10
43.16798570030118
 20
56.50136563283689
 42
-0.3639702342661923
 10
43.66038957680721
 20
56.91454154400346
 10
45.71185881909332
 20
56.91454154400346
 42
-0.4142135623731546
 10
46.21185881909338
 20
56.41454154400348
 10
46.21185881909332
 20
24.91454154400361
 42
0.4142135623730962
 10
49.21185881909332
 20
21.9145415440035
 10
91.21185881909321
 20
21.9145415440035
 42
0.4142135623730966
 10
94.21185881909321
 20
24.91454154400361
 10
94.21185881909357
 20
51.91454154400346
 10
100.7118588190926
 20
51.91454154400346
 42
0.4142135623731325
 10
102.2118588190927
 20
53.41454154400363
 10
102.2118588190927
 20
53.41454154400363
 10
102.2118588190922
 20
69.91454154400362
  0
LINE
  5
1F15
330
1F
100
AcDbEntity
  8
Schlitz-Zapfen
100
AcDbLine
 10
46.21185881909338
 20
56.41454154400348
 30
0.0
 11
46.21185881909323
 21
69.91454154400362
 31
0.0
  0
LINE
  5
1F16
330
1F
100
AcDbEntity
  8
Schlitz-Zapfen
100
AcDbLine
 10
55.71185881909309
 20
21.9145415440035
 30
0.0
 11
55.71185881909309
 21
69.91454154400362
 31
0.0
  0
LINE
  5
1F17
330
1F
100
AcDbEntity
  8
Schlitz-Zapfen
100
AcDbLine
 10
66.71185881909309
 20
21.9145415440035
 30
0.0
 11
66.71185881909309
 21
69.91454154400362
 31
0.0
  0
LINE
  5
1F18
330
1F
100
AcDbEntity
  8
Schlitz-Zapfen
100
AcDbLine
 10
78.71185881909275
 20
21.9145415440035
 30
0.0
 11
78.71185881909275
 21
69.91454154400362
 31
0.0
  0
LINE
  5
1F19
330
1F
100
AcDbEntity
  8
Schraffur
 62
     5
100
AcDbLine
 10
56.21185881909259
 20
69.91454154400362
 30
0.0
 11
56.21185881909259
 21
21.9145415440035
 31
0.0
  0
HATCH
  5
1F1A
330
1F
100
AcDbEntity
  8
Schraffur
 62
     5
100
AcDbHatch
 10
0.0
 20
0.0
 30
0.0
210
0.0
220
0.0
230
1.0
  2
STEEL
 70
     0
 71
     0
 91
        2
 92
        7
 72
     1
 73
     1
 93
       14
 10
56.21185881909259
 20
69.91454154400364
 42
0.0
 10
34.21185881909247
 20
69.91454154400364
 42
0.0
 10
34.21185881909247
 20
57.31454204418978
 42
0.0
 10
34.21185881909333
 20
55.10523857296711
 42
0.5205670505517459
 10
38.23791924907043
 20
52.28616071060939
 42
0.0
 10
42.44059292531011
 20
53.81580883309482
 42
0.2679491924311738
 10
42.76198673015342
 20
54.19883105465429
 42
0.0
 10
43.16798570030118
 20
56.50136563283689
 42
-0.3639702342662284
 10
43.66038957680728
 20
56.91454154400346
 42
0.0
 10
45.71185881909332
 20
56.91454154400346
 42
-0.4142135623731504
 10
46.21185881909338
 20
56.41454154400349
 42
0.0
 10
46.21185881909332
 20
24.91454154400361
 42
0.4142135623731011
 10
49.21185881909337
 20
21.9145415440035
 42
0.0
 10
56.21185881909259
 20
21.9145415440035
 42
0.0
 97
        0
 92
        1
 93
        8
 72
     1
 10
102.2118588190922
 20
69.91454154400362
 11
80.21185881909245
 21
69.91454154400362
 72
     1
 10
80.21185881909245
 20
69.91454154400362
 11
80.21185881909245
 21
21.9145415440035
 72
     1
 10
80.21185881909245
 20
21.9145415440035
 11
91.21185881909321
 21
21.9145415440035
 72
     2
 10
91.21185881909321
 20
24.91454154400351
 40
3.000000000000003
 50
270.0
 51
359.9999999999998
 73
     1
 72
     1
 10
94.21185881909321
 20
24.9145415440035
 11
94.21185881909357
 21
51.91454154400346
 72
     1
 10
94.21185881909357
 20
51.91454154400346
 11
100.7118588190926
 21
51.91454154400346
 72
     2
 10
100.7118588190927
 20
53.41454154400349
 40
1.500000000000031
 50
269.9999999999968
 51
359.9999999999965
 73
     1
 72
     1
 10
102.2118588190927
 20
53.41454154400341
 11
102.2118588190922
 21
69.91454154400362
 97
        0
 75
     0
 76
     1
 52
0.0
 41
2.0
 77
     0
 78
     2
 53
45.0
 43
0.0
 44
9.57347474392634
 45
-4.490128060534575
 46
4.490128060534575
 79
     0
 53
45.0
 43
0.0
 44
12.74847474392634
 45
-4.490128060534575
 46
4.490128060534575
 79
     0
 47
0.295152055585611
 98
        6
 10
37.70899894587115
 20
59.97696321137249
 10
87.06769613513092
 20
61.46347917589157
 10
49.63908802744459
 20
64.30363393700537
 10
-14.26176893671976
 20
19.91454125613183
 10
42.66867794488097
 20
48.07664132210959
 10
95.80597222261976
 20
42.5468559457215
1001
ACAD
1010
0.0
1020
0.0
1030
0.0
  0
LINE
  5
1F1B
330
1F
100
AcDbEntity
  8
Schraffur
 62
     5
100
AcDbLine
 10
80.21185881909245
 20
69.91454154400362
 30
0.0
 11
80.21185881909245
 21
21.9145415440035
 31
0.0
  0
HATCH
  5
1F1D
330
1F
100
AcDbEntity
  8
Schraffur
 62
     5
100
AcDbHatch
 10
0.0
 20
0.0
 30
0.0
210
0.0
220
0.0
230
1.0
  2
STEEL
 70
     0
 71
     0
 91
        1
 92
        1
 93
        4
 72
     1
 10
230.2118588190926
 20
69.91454154400362
 11
206.2118588190926
 21
69.91454154400364
 72
     1
 10
206.2118588190926
 20
69.91454154400364
 11
206.2118588190926
 21
21.9145415440035
 72
     1
 10
206.2118588190926
 20
21.9145415440035
 11
230.2118588190926
 21
21.9145415440035
 72
     1
 10
230.2118588190926
 20
21.9145415440035
 11
230.2118588190926
 21
69.91454154400362
 97
        0
 75
     0
 76
     1
 52
90.0
 41
2.0
 77
     0
 78
     2
 53
135.0
 43
0.0
 44
0.0
 45
-4.490128060534575
 46
-4.490128060534575
 79
     0
 53
135.0
 43
-3.174999999999998
 44
0.0000000000000002
 45
-4.490128060534575
 46
-4.490128060534575
 79
     0
 98
        4
 10
0.0
 20
0.0
 10
135.7382310632804
 20
19.91454125613183
 10
135.7382310632804
 20
19.91454125613183
 10
224.2950172259498
 20
58.42592732789412
1001
ACAD
1010
0.0
1020
0.0
1030
0.0
  0
LWPOLYLINE
  5
1F1E
330
1F
100
AcDbEntity
  8
Sohlbank
100
AcDbPolyline
 90
       17
 70
     0
 43
0.0
 10
184.2118588190926
 20
69.91454154400364
 10
184.2118588190926
 20
57.31454204418978
 10
184.2118588190933
 20
54.91454154400345
 42
0.5205670505517467
 10
188.2379192490704
 20
52.09546368164581
 10
192.4405929253103
 20
53.62511180413109
 42
0.2679491924311182
 10
192.7619867301535
 20
54.0081340256906
 10
193.1679857003011
 20
56.50136563283689
 42
-0.3639702342661923
 10
193.6603895768073
 20
56.91454154400346
 10
195.7118588190933
 20
56.91454154400346
 42
-0.4142135623731546
 10
196.2118588190933
 20
56.41454154400348
 10
196.2118588190933
 20
24.91454154400361
 42
0.4142135623730962
 10
199.2118588190933
 20
21.9145415440035
 10
241.2118588190929
 20
21.9145415440035
 10
249.2118588190923
 20
21.9145415440035
 42
0.4142135623730951
 10
252.2118588190929
 20
24.91454154400361
 10
252.2118588190929
 20
58.4145415440037
 10
252.2118588190923
 20
69.91454154400362
  0
LINE
  5
1F1F
330
1F
100
AcDbEntity
  8
Schlitz-Zapfen
100
AcDbLine
 10
196.2118588190933
 20
56.41454154400348
 30
0.0
 11
196.2118588190931
 21
69.91454154400362
 31
0.0
  0
LINE
  5
1F20
330
1F
100
AcDbEntity
  8
Schlitz-Zapfen
100
AcDbLine
 10
205.7118588190931
 20
21.91454154400355
 30
0.0
 11
205.7118588190931
 21
69.91454154400362
 31
0.0
  0
LINE
  5
1F21
330
1F
100
AcDbEntity
  8
Schlitz-Zapfen
100
AcDbLine
 10
216.7118588190931
 20
21.91454154400355
 30
0.0
 11
216.7118588190931
 21
69.91454154400362
 31
0.0
  0
LINE
  5
1F22
330
1F
100
AcDbEntity
  8
Schlitz-Zapfen
100
AcDbLine
 10
228.7118588190929
 20
21.91454154400355
 30
0.0
 11
228.7118588190929
 21
69.91454154400362
 31
0.0
  0
LINE
  5
1F23
330
1F
100
AcDbEntity
  8
Schraffur
 62
     5
100
AcDbLine
 10
206.2118588190926
 20
69.91454154400362
 30
0.0
 11
206.2118588190926
 21
21.9145415440035
 31
0.0
  0
HATCH
  5
1F24
330
1F
100
AcDbEntity
  8
Schraffur
 62
     5
100
AcDbHatch
 10
0.0
 20
0.0
 30
0.0
210
0.0
220
0.0
230
1.0
  2
STEEL
 70
     0
 71
     0
 91
        2
 92
        7
 72
     1
 73
     1
 93
       14
 10
206.2118588190926
 20
69.91454154400362
 42
0.0
 10
184.2118588190926
 20
69.91454154400364
 42
0.0
 10
184.2118588190926
 20
57.31454204418978
 42
0.0
 10
184.2118588190933
 20
54.91454154400345
 42
0.5205670505517313
 10
188.2379192490702
 20
52.09546368164574
 42
0.0
 10
192.4405929253103
 20
53.62511180413109
 42
0.2679491924312338
 10
192.7619867301535
 20
54.00813402569081
 42
0.0
 10
193.1658787820311
 20
56.48842708961227
 42
-0.3714110892200859
 10
193.6603895768073
 20
56.91454154400346
 42
0.0
 10
195.7118588190933
 20
56.91454154400346
 42
-0.414213562373134
 10
196.2118588190933
 20
56.41454154400353
 42
0.0
 10
196.2118588190933
 20
24.91454154400361
 42
0.4142135623731015
 10
199.2118588190933
 20
21.9145415440035
 42
0.0
 10
206.2118588190926
 20
21.9145415440035
 42
0.0
 97
        0
 92
        1
 93
        5
 72
     1
 10
252.2118588190923
 20
69.91454154400362
 11
230.2118588190926
 21
69.91454154400362
 72
     1
 10
230.2118588190926
 20
69.91454154400362
 11
230.2118588190926
 21
21.9145415440035
 72
     1
 10
230.2118588190926
 20
21.9145415440035
 11
249.2118588190923
 21
21.9145415440035
 72
     2
 10
249.2118588190926
 20
24.91454154400385
 40
3.000000000000348
 50
269.9999999999957
 51
360.0000000000008
 73
     1
 72
     1
 10
252.2118588190929
 20
24.91454154400389
 11
252.2118588190923
 21
69.91454154400362
 97
        0
 75
     0
 76
     1
 52
0.0
 41
2.0
 77
     0
 78
     2
 53
45.0
 43
0.0
 44
9.57347474392634
 45
-4.490128060534575
 46
4.490128060534575
 79
     0
 53
45.0
 43
0.0
 44
12.74847474392634
 45
-4.490128060534575
 46
4.490128060534575
 79
     0
 47
0.1840018962499872
 98
        5
 10
197.0314599224269
 20
64.60347090526233
 10
198.2010477917891
 20
59.662622370059
 10
135.7382310632804
 20
19.91454125613183
 10
192.6686779448809
 20
48.07664132210959
 10
245.8059722226199
 20
42.5468559457215
1001
ACAD
1010
0.0
1020
0.0
1030
0.0
  0
LINE
  5
1F25
330
1F
100
AcDbEntity
  8
Schraffur
 62
     5
100
AcDbLine
 10
230.2118588190926
 20
69.91454154400362
 30
0.0
 11
230.2118588190926
 21
21.9145415440035
 31
0.0
  0
LWPOLYLINE
  5
1F27
330
1F
100
AcDbEntity
  8
0
100
AcDbPolyline
 90
        4
 70
     1
 43
0.0
 10
0.0000011707487033
 20
0.0000005697270922
 10
297.0000011707487
 20
0.0000005697270922
 10
297.0000011707487
 20
210.000000569727
 10
0.0000011707487033
 20
210.000000569727
  0
LWPOLYLINE
  5
1F28
330
1F
100
AcDbEntity
  8
0
100
AcDbPolyline
 90
        4
 70
     1
 43
0.0
 10
6.000001170748871
 20
6.000000569727093
 10
291.0000011707488
 20
6.000000569727093
 10
291.0000011707488
 20
204.000000569727
 10
6.000001170748871
 20
204.000000569727
  0
HATCH
  5
1F29
330
1F
100
AcDbEntity
  8
Schraffur
 62
     5
100
AcDbHatch
 10
0.0
 20
0.0
 30
0.0
210
0.0
220
0.0
230
1.0
  2
STEEL
 70
     0
 71
     0
 91
        1
 92
        1
 93
        4
 72
     1
 10
64.63721772444386
 20
159.7877816946985
 11
40.637217724444
 21
159.7877816946985
 72
     1
 10
40.637217724444
 20
159.7877816946985
 11
40.637217724444
 21
111.7877816946985
 72
     1
 10
40.637217724444
 20
111.7877816946985
 11
64.63721772444386
 21
111.7877816946985
 72
     1
 10
64.63721772444386
 20
111.7877816946985
 11
64.63721772444386
 21
159.7877816946985
 97
        0
 75
     0
 76
     1
 52
90.0
 41
2.0
 77
     0
 78
     2
 53
135.0
 43
-15.57464109464859
 44
6.806950637806038
 45
-4.490128060534575
 46
-4.490128060534575
 79
     0
 53
135.0
 43
-18.74964109464859
 44
6.806950637806038
 45
-4.490128060534575
 46
-4.490128060534575
 79
     0
 98
        4
 10
-15.57464109464859
 20
6.806950637806038
 10
-29.83641003136836
 20
109.7877814068268
 10
-29.83641003136836
 20
109.7877814068268
 10
58.72037613130117
 20
148.2991674785893
1001
ACAD
1010
0.0
1020
0.0
1030
0.0
  0
LWPOLYLINE
  5
1F2A
330
1F
100
AcDbEntity
  8
Sohlbank
100
AcDbPolyline
 90
       10
 70
     0
 43
0.0
 10
18.63721772444387
 20
159.7877816946986
 10
18.63721772444387
 20
147.1877821948848
 10
18.63721772444387
 20
143.1877821948846
 10
18.6372177244441
 20
114.7877816946985
 42
0.414213562373094
 10
21.63721772444411
 20
111.7877816946985
 10
75.63721772444417
 20
111.7877816946985
 10
83.63721772444334
 20
111.7877816946985
 42
0.4142135623730951
 10
86.63721772444409
 20
114.7877816946985
 10
86.63721772444409
 20
148.2877816946985
 10
86.63721772444359
 20
159.7877816946986
  0
LINE
  5
1F2B
330
1F
100
AcDbEntity
  8
Schlitz-Zapfen
100
AcDbLine
 10
30.6372177244445
 20
111.7877816946985
 30
0.0
 11
30.6372177244445
 21
159.7877816946985
 31
0.0
  0
LINE
  5
1F2C
330
1F
100
AcDbEntity
  8
Schlitz-Zapfen
100
AcDbLine
 10
40.1372177244445
 20
111.7877816946985
 30
0.0
 11
40.1372177244445
 21
159.7877816946985
 31
0.0
  0
LINE
  5
1F2D
330
1F
100
AcDbEntity
  8
Schlitz-Zapfen
100
AcDbLine
 10
51.13721772444449
 20
111.7877816946985
 30
0.0
 11
51.13721772444449
 21
159.7877816946985
 31
0.0
  0
LINE
  5
1F2E
330
1F
100
AcDbEntity
  8
Schlitz-Zapfen
100
AcDbLine
 10
63.13721772444417
 20
111.7877816946985
 30
0.0
 11
63.13721772444417
 21
159.7877816946985
 31
0.0
  0
LINE
  5
1F2F
330
1F
100
AcDbEntity
  8
Schraffur
 62
     5
100
AcDbLine
 10
40.637217724444
 20
159.7877816946985
 30
0.0
 11
40.637217724444
 21
111.7877816946985
 31
0.0
  0
HATCH
  5
1F30
330
1F
100
AcDbEntity
  8
Schraffur
 62
     5
100
AcDbHatch
 10
0.0
 20
0.0
 30
0.0
210
0.0
220
0.0
230
1.0
  2
STEEL
 70
     0
 71
     0
 91
        4
 92
        7
 72
     1
 73
     1
 93
        7
 10
30.63721772444448
 20
159.7877816946985
 42
0.0
 10
18.63721772444387
 20
159.7877816946985
 42
0.0
 10
18.63721772444387
 20
147.1877821948848
 42
0.0
 10
18.63721772444387
 20
143.1877821948846
 42
0.0
 10
18.6372177244441
 20
114.7877816946985
 42
0.414213562373094
 10
21.63721772444411
 20
111.7877816946985
 42
0.0
 10
30.6372177244445
 20
111.7877816946985
 42
0.0
 97
        0
 92
        7
 72
     0
 73
     1
 93
        4
 10
40.1372177244445
 20
159.7877816946985
 10
30.6372177244445
 20
159.7877816946985
 10
30.63721772444448
 20
111.7877816946985
 10
40.1372177244445
 20
111.7877816946985
 97
        0
 92
        7
 72
     0
 73
     1
 93
        4
 10
40.637217724444
 20
159.7877816946985
 10
40.1372177244445
 20
159.7877816946985
 10
40.1372177244445
 20
111.7877816946985
 10
40.637217724444
 20
111.7877816946985
 97
        0
 92
        1
 93
        5
 72
     1
 10
86.63721772444359
 20
159.7877816946986
 11
64.63721772444386
 21
159.7877816946985
 72
     1
 10
64.63721772444386
 20
159.7877816946985
 11
64.63721772444386
 21
111.7877816946985
 72
     1
 10
64.63721772444386
 20
111.7877816946985
 11
83.63721772444334
 21
111.7877816946985
 72
     2
 10
83.63721772444367
 20
114.787781694699
 40
3.000000000000451
 50
269.999999999994
 51
359.9999999999988
 73
     1
 72
     1
 10
86.63721772444409
 20
114.7877816946989
 11
86.63721772444359
 21
159.7877816946986
 97
        0
 75
     0
 76
     1
 52
0.0
 41
2.0
 77
     0
 78
     2
 53
45.0
 43
-15.57464109464859
 44
6.806950637806038
 45
-4.490128060534575
 46
4.490128060534575
 79
     0
 53
45.0
 43
-15.57464109464859
 44
9.981950637806038
 45
-4.490128060534575
 46
4.490128060534575
 79
     0
 47
0.0457875432683008
 98
        6
 10
29.67781380711853
 20
144.6859445753131
 10
34.44779108295512
 20
140.9797045341846
 10
40.45128123347632
 20
145.1694762536105
 10
-29.83641003136836
 20
109.7877814068268
 10
27.09403685023237
 20
137.9498814728046
 10
80.23133112797117
 20
132.4200960964166
1001
ACAD
1010
0.0
1020
0.0
1030
0.0
  0
LINE
  5
1F31
330
1F
100
AcDbEntity
  8
Schraffur
 62
     5
100
AcDbLine
 10
64.63721772444386
 20
159.7877816946985
 30
0.0
 11
64.63721772444386
 21
111.7877816946985
 31
0.0
  0
HATCH
  5
1F33
330
1F
100
AcDbEntity
  8
Schraffur
 62
     5
100
AcDbHatch
 10
0.0
 20
0.0
 30
0.0
210
0.0
220
0.0
230
1.0
  2
STEEL
 70
     0
 71
     0
 91
        1
 92
        1
 93
        4
 72
     1
 10
250.8369295912109
 20
159.7877816946985
 11
226.8369295912109
 21
159.7877816946985
 72
     1
 10
226.8369295912109
 20
159.7877816946985
 11
226.8369295912109
 21
111.7877816946985
 72
     1
 10
226.8369295912109
 20
111.7877816946985
 11
250.8369295912109
 21
111.7877816946985
 72
     1
 10
250.8369295912109
 20
111.7877816946985
 11
250.8369295912109
 21
159.7877816946985
 97
        0
 75
     0
 76
     1
 52
90.0
 41
2.0
 77
     0
 78
     2
 53
135.0
 43
20.62507077211831
 44
6.806950637806038
 45
-4.490128060534575
 46
-4.490128060534575
 79
     0
 53
135.0
 43
17.45007077211831
 44
6.806950637806038
 45
-4.490128060534575
 46
-4.490128060534575
 79
     0
 98
        4
 10
20.62507077211831
 20
6.806950637806038
 10
156.3633018353987
 20
109.7877814068268
 10
156.3633018353987
 20
109.7877814068268
 10
244.9200879980681
 20
148.2991674785893
1001
ACAD
1010
0.0
1020
0.0
1030
0.0
  0
LWPOLYLINE
  5
1F34
102
{ACAD_REACTORS
330
1F3F
102
}
330
1F
100
AcDbEntity
  8
Sohlbank
100
AcDbPolyline
 90
       12
 70
     0
 43
0.0
 10
204.8369295912109
 20
159.7877816946986
 10
204.8369295912109
 20
147.1877821948848
 10
204.8369295912109
 20
143.1877821948846
 10
204.8369295912109
 20
114.7877816946985
 42
0.414213562373094
 10
207.8369295912109
 20
111.7877816946985
 10
261.8369295912115
 20
111.7877816946985
 42
0.4142135623730966
 10
264.8369295912115
 20
114.7877816946985
 10
264.8369295912119
 20
141.7877816946985
 10
271.3369295912112
 20
141.7877816946985
 42
0.4142135623731325
 10
272.8369295912112
 20
143.2877816946986
 10
272.8369295912112
 20
143.2877816946986
 10
272.8369295912106
 20
159.7877816946986
  0
LINE
  5
1F35
330
1F
100
AcDbEntity
  8
Schlitz-Zapfen
100
AcDbLine
 10
216.8369295912114
 20
111.7877816946987
 30
0.0
 11
216.8369295912114
 21
159.7877816946985
 31
0.0
  0
LINE
  5
1F36
330
1F
100
AcDbEntity
  8
Schlitz-Zapfen
100
AcDbLine
 10
226.3369295912114
 20
111.7877816946987
 30
0.0
 11
226.3369295912114
 21
159.7877816946985
 31
0.0
  0
LINE
  5
1F37
330
1F
100
AcDbEntity
  8
Schlitz-Zapfen
100
AcDbLine
 10
237.3369295912114
 20
111.7877816946987
 30
0.0
 11
237.3369295912114
 21
159.7877816946985
 31
0.0
  0
LINE
  5
1F38
330
1F
100
AcDbEntity
  8
Schlitz-Zapfen
100
AcDbLine
 10
249.3369295912112
 20
111.7877816946987
 30
0.0
 11
249.3369295912112
 21
159.7877816946985
 31
0.0
  0
LINE
  5
1F39
330
1F
100
AcDbEntity
  8
Schraffur
 62
     5
100
AcDbLine
 10
226.8369295912109
 20
159.7877816946985
 30
0.0
 11
226.8369295912109
 21
111.7877816946985
 31
0.0
  0
HATCH
  5
1F3A
330
1F
100
AcDbEntity
  8
Schraffur
 62
     5
100
AcDbHatch
 10
0.0
 20
0.0
 30
0.0
210
0.0
220
0.0
230
1.0
  2
STEEL
 70
     0
 71
     0
 91
        2
 92
        7
 72
     1
 73
     1
 93
        7
 10
226.8369295912109
 20
159.7877816946985
 42
0.0
 10
204.8369295912109
 20
159.7877816946986
 42
0.0
 10
204.8369295912109
 20
147.1877821948848
 42
0.0
 10
204.8369295912109
 20
143.1877821948846
 42
0.0
 10
204.8369295912109
 20
114.7877816946985
 42
0.414213562373094
 10
207.8369295912109
 20
111.7877816946985
 42
0.0
 10
226.8369295912109
 20
111.7877816946985
 42
0.0
 97
        0
 92
        1
 93
        8
 72
     1
 10
272.8369295912106
 20
159.7877816946986
 11
250.8369295912109
 21
159.7877816946985
 72
     1
 10
250.836929591211
 20
159.7877816946985
 11
250.8369295912109
 21
111.7877816946985
 72
     1
 10
250.8369295912109
 20
111.7877816946985
 11
261.8369295912115
 21
111.7877816946985
 72
     2
 10
261.8369295912115
 20
114.7877816946985
 40
3.000000000000003
 50
270.0
 51
360.0
 73
     1
 72
     1
 10
264.8369295912115
 20
114.7877816946985
 11
264.8369295912116
 21
141.7877816946985
 72
     1
 10
264.8369295912116
 20
141.7877816946985
 11
271.3369295912112
 21
141.7877816946985
 72
     2
 10
271.3369295912112
 20
143.2877816946985
 40
1.500000000000003
 50
270.0
 51
360.0
 73
     1
 72
     1
 10
272.8369295912112
 20
143.2877816946985
 11
272.8369295912106
 21
159.7877816946986
 97
        0
 75
     0
 76
     1
 52
0.0
 41
2.0
 77
     0
 78
     2
 53
45.0
 43
20.62507077211831
 44
6.806950637806038
 45
-4.490128060534575
 46
4.490128060534575
 79
     0
 53
45.0
 43
20.62507077211831
 44
9.981950637806038
 45
-4.490128060534575
 46
4.490128060534575
 79
     0
 47
0.1654205601007253
 98
        5
 10
211.8650272710134
 20
149.6744839335612
 10
259.6500161123449
 20
149.5955422884466
 10
156.3633018353987
 20
109.7877814068268
 10
213.2937487169992
 20
137.9498814728046
 10
266.4310429947382
 20
132.4200960964166
1001
ACAD
1010
0.0
1020
0.0
1030
0.0
  0
LINE
  5
1F3B
330
1F
100
AcDbEntity
  8
Schraffur
 62
     5
100
AcDbLine
 10
250.8369295912109
 20
159.7877816946985
 30
0.0
 11
250.8369295912109
 21
111.7877816946985
 31
0.0
  0
DIMENSION
  5
1F3D
102
{ACAD_XDICTIONARY
360
1F3E
102
}
102
{ACAD_REACTORS
330
1F3F
102
}
330
1F
100
AcDbEntity
  8
Bemaßung
100
AcDbDimension
  2
*D10
 10
204.8369295912109
 20
145.3932637098765
 30
0.0
 11
211.0452629245443
 21
147.2682637098765
 31
0.0
 70
    32
 71
     5
 42
0.0
  3
IDEAL Holz
100
AcDbAlignedDimension
 13
204.8369295912109
 23
147.1877821948848
 33
0.0
 14
204.8369295912109
 24
148.1428988751591
 34
0.0
100
AcDbRotatedDimension
  0
DIMENSION
  5
1F40
330
1F
100
AcDbEntity
  8
Bemaßung
100
AcDbDimension
  2
*D1
 10
282.4086446196843
 20
111.7877816946985
 30
0.0
 11
280.5336446196843
 21
126.7877816946985
 31
0.0
 70
    32
 71
     5
 42
29.99999999999999
  3
IDEAL Holz
100
AcDbAlignedDimension
 13
276.2485465959071
 23
141.7877816946985
 33
0.0
 14
274.7072784280699
 24
111.7877816946985
 34
0.0
 50
90.0
100
AcDbRotatedDimension
  0
DIMENSION
  5
1F41
330
1F
100
AcDbEntity
  8
Bemaßung
100
AcDbDimension
  2
*D2
 10
184.2118588190933
 20
48.34042009642089
 30
0.0
 11
190.2118588190933
 21
50.21542009642089
 31
0.0
 70
    32
 71
     5
 42
12.0
  3
IDEAL Holz
100
AcDbAlignedDimension
 13
196.2118588190933
 23
48.34042009642089
 33
0.0
 14
184.2118588190933
 24
48.34042009642089
 34
0.0
100
AcDbRotatedDimension
  0
DIMENSION
  5
1F42
330
1F
100
AcDbEntity
  8
Bemaßung
100
AcDbDimension
  2
*D3
 10
178.52296860646
 20
21.9145415440035
 30
0.0
 11
176.6479686064601
 21
36.9145415440035
 31
0.0
 70
    32
 71
     5
 42
29.99999999999997
  3
IDEAL Holz
100
AcDbAlignedDimension
 13
181.9299137127768
 23
51.91454154400346
 33
0.0
 14
182.3492408363336
 24
21.9145415440035
 34
0.0
 50
90.0
100
AcDbRotatedDimension
  0
DIMENSION
  5
1F43
330
1F
100
AcDbEntity
  8
Bemaßung
100
AcDbDimension
  2
*D4
 10
172.9307249429756
 20
56.91454154400346
 30
0.0
 11
171.0557249429756
 21
39.4145415440035
 31
0.0
 70
    32
 71
     5
 42
34.99999999999996
  3
IDEAL Holz
100
AcDbAlignedDimension
 13
178.52296860646
 23
21.9145415440035
 33
0.0
 14
181.2700363348077
 24
56.91454154400346
 34
0.0
 50
90.0
100
AcDbRotatedDimension
  0
DIMENSION
  5
1F44
330
1F
100
AcDbEntity
  8
Bemaßung
100
AcDbDimension
  2
*D5
 10
34.21185881909333
 20
48.34042009642089
 30
0.0
 11
40.21185881909334
 21
50.21542009642089
 31
0.0
 70
    32
 71
     5
 42
12.00000000000005
  3
IDEAL Holz
100
AcDbAlignedDimension
 13
46.21185881909338
 23
48.34042009642089
 33
0.0
 14
34.21185881909333
 24
48.34042009642089
 34
0.0
100
AcDbRotatedDimension
  0
DIMENSION
  5
1F45
330
1F
100
AcDbEntity
  8
Bemaßung
100
AcDbDimension
  2
*D6
 10
28.52296860646038
 20
21.9145415440035
 30
0.0
 11
26.64796860646038
 21
36.91454154400349
 31
0.0
 70
    32
 71
     5
 42
29.99999999999996
  3
IDEAL Holz
100
AcDbAlignedDimension
 13
31.92991371277691
 23
51.91454154400346
 33
0.0
 14
32.34924083633359
 24
21.9145415440035
 34
0.0
 50
90.0
100
AcDbRotatedDimension
  0
DIMENSION
  5
1F46
330
1F
100
AcDbEntity
  8
Bemaßung
100
AcDbDimension
  2
*D7
 10
22.93072494297536
 20
56.91454154400346
 30
0.0
 11
21.05572494297535
 21
39.41454154400349
 31
0.0
 70
    32
 71
     5
 42
34.99999999999996
  3
IDEAL Holz
100
AcDbAlignedDimension
 13
28.52296860646038
 23
21.9145415440035
 33
0.0
 14
31.27003633480774
 24
56.91454154400346
 34
0.0
 50
90.0
100
AcDbRotatedDimension
  0
DIMENSION
  5
1F47
330
1F
100
AcDbEntity
  8
Bemaßung
100
AcDbDimension
  2
*D8
 10
94.21185881909357
 20
48.07334437716
 30
0.0
 11
98.21185881909308
 21
49.94834437716
 31
0.0
 70
    32
 71
     5
 42
7.99999999999903
  3
IDEAL Holz
100
AcDbAlignedDimension
 13
102.2118588190926
 23
53.41454154400363
 33
0.0
 14
94.21185881909357
 24
49.86786286216812
 34
0.0
100
AcDbRotatedDimension
  0
DIMENSION
  5
1F48
330
1F
100
AcDbEntity
  8
Bemaßung
100
AcDbDimension
  2
*D9
 10
111.783573847566
 20
21.9145415440035
 30
0.0
 11
109.908573847566
 21
36.9145415440035
 31
0.0
 70
    32
 71
     5
 42
29.99999999999996
  3
IDEAL Holz
100
AcDbAlignedDimension
 13
105.6234758237887
 23
51.91454154400346
 33
0.0
 14
104.0822076559516
 24
21.9145415440035
 34
0.0
 50
90.0
100
AcDbRotatedDimension
  0
MTEXT
  5
1F49
330
1F
100
AcDbEntity
  8
0
100
AcDbMText
 10
20.82144706731705
 20
176.9071462809893
 30
0.0
 40
5.0
 41
68.54906907578879
 71
     1
 72
     5
  1
SB 0 - ohne Fräsung\Pmit Steinbankanschluss
  7
RomanS
 73
     1
 44
1.0
1001
ACAD
1000
MTEXTBEGIN
1070
    73
1070
     1
1070
    44
1040
1.0
1070
    74
1070
     0
1000
MTEXTEND
  0
MTEXT
  5
1F4A
330
1F
100
AcDbEntity
  8
0
100
AcDbMText
 10
194.1492912179773
 20
179.4105780234064
 30
0.0
 40
5.0
 41
96.28965376318099
 71
     1
 72
     5
  1
SB 1 - FB-Fräsung innen\P       mit Steinbankanschluss
  7
RomanS
 73
     1
 44
1.0
1001
ACAD
1000
MTEXTBEGIN
1070
    73
1070
     1
1070
    44
1040
1.0
1070
    74
1070
     0
1000
MTEXTEND
1000
ACAD_MTEXT_DEFINED_HEIGHT_BEGIN
1070
    46
1040
13.89527648061767
1000
ACAD_MTEXT_DEFINED_HEIGHT_END
  0
MTEXT
  5
1F4B
330
1F
100
AcDbEntity
  8
0
100
AcDbMText
 10
21.75153044057525
 20
80.95277245970359
 30
0.0
 40
5.0
 41
107.6101393196304
 71
     1
 72
     5
  1
SB 2 - Fräsung innen und außen
  7
RomanS
 73
     1
 44
1.0
1001
ACAD
1000
MTEXTBEGIN
1070
    73
1070
     1
1070
    44
1040
1.0
1070
    74
1070
     0
1000
MTEXTEND
1000
ACAD_MTEXT_DEFINED_HEIGHT_BEGIN
1070
    46
1040
13.38985017550521
1000
ACAD_MTEXT_DEFINED_HEIGHT_END
  0
MTEXT
  5
1F4C
330
1F
100
AcDbEntity
  8
0
100
AcDbMText
 10
176.8363289388555
 20
81.72306972491174
 30
0.0
 40
5.0
 41
93.56262419775886
 71
     1
 72
     5
  1
SB 3 - Alubankfräsung außen
  7
RomanS
 73
     1
 44
1.0
1001
ACAD
1000
MTEXTBEGIN
1070
    73
1070
     1
1070
    44
1040
1.0
1070
    74
1070
     0
1000
MTEXTEND
1000
ACAD_MTEXT_DEFINED_HEIGHT_BEGIN
1070
    46
1040
13.11748362952676
1000
ACAD_MTEXT_DEFINED_HEIGHT_END
  0
MTEXT
  5
1F4D
102
{ACAD_XDICTIONARY
360
2948
102
}
330
1F
100
AcDbEntity
  8
0
100
AcDbMText
 10
10.77961700888164
 20
201.6378246799756
 30
0.0
 40
5.0
 41
227.306907971661
 71
     1
 72
     5
  1
{\fArial|b1|i0|c0|p34;Standard-Fensterbankanschl\U+00FCsse - Holzfenster IDEAL IV68xxxx\P\fArial|b0|i0|c0|p34;\H0.8x;Standardfr\U+00E4sungen}
 73
     1
 44
1.0
1001
ACAD
1000
MTEXTBEGIN
1070
    73
1070
     1
1070
    44
1040
1.0
1070
    74
1070
     0
1000
MTEXTEND
1000
ACAD_MTEXT_DEFINED_HEIGHT_BEGIN
1070
    46
1040
11.02238646360934
1000
ACAD_MTEXT_DEFINED_HEIGHT_END
  0
MTEXT
  5
22AA
102
{ACAD_XDICTIONARY
360
294A
102
}
330
1F
100
AcDbEntity
  8
0
100
AcDbMText
 10
6.903494990147177
 20
10.76514321496783
 30
0.0
 40
3.0
 41
98.32817594333187
 71
     1
 72
     5
  1
{\fArial|b0|i0|c0|p34;Zeichnung ohne Gew\U+00E4hr; \U+00C4nderungen vorbehalten}
 73
     1
 44
1.0
1001
ACAD
1000
MTEXTBEGIN
1070
    73
1070
     1
1070
    44
1040
1.0
1070
    74
1070
     0
1000
MTEXTEND
1000
ACAD_MTEXT_DEFINED_HEIGHT_BEGIN
1070
    46
1040
3.967088642823908
1000
ACAD_MTEXT_DEFINED_HEIGHT_END
  0
MTEXT
  5
22AC
330
1F
100
AcDbEntity
  8
0
100
AcDbMText
 10
246.4317432987382
 20
13.61451166224657
 30
0.0
 40
5.0
 41
44.56825787201046
 71
     1
 72
     5
  1
{\fArial|b0|i0|c0|p34;03-IV68-xx/56}
 73
     1
 44
1.0
1001
ACAD
1000
MTEXTBEGIN
1070
    73
1070
     1
1070
    44
1040
1.0
1070
    74
1070
     0
1000
MTEXTEND
1000
ACAD_MTEXT_DEFINED_HEIGHT_BEGIN
1070
    46
1040
9.819575724238347
1000
ACAD_MTEXT_DEFINED_HEIGHT_END
  0
HATCH
  5
26BF
330
1F
100
AcDbEntity
  8
Schraffur
 62
     5
100
AcDbHatch
 10
0.0
 20
0.0
 30
0.0
210
0.0
220
0.0
230
1.0
  2
STEEL
 70
     0
 71
     0
 91
        1
 92
        1
 93
        4
 72
     1
 10
158.1513091061345
 20
159.7877816946985
 11
134.1513091061347
 21
159.7877816946985
 72
     1
 10
134.1513091061346
 20
159.7877816946985
 11
134.1513091061346
 21
111.7877816946985
 72
     1
 10
134.1513091061346
 20
111.7877816946985
 11
158.1513091061345
 21
111.7877816946985
 72
     1
 10
158.1513091061345
 20
111.7877816946985
 11
158.1513091061345
 21
159.7877816946985
 97
        0
 75
     0
 76
     1
 52
90.0
 41
2.0
 77
     0
 78
     2
 53
135.0
 43
77.93945028704206
 44
6.806950637806038
 45
-4.490128060534575
 46
-4.490128060534575
 79
     0
 53
135.0
 43
74.76445028704207
 44
6.806950637806038
 45
-4.490128060534575
 46
-4.490128060534575
 79
     0
 98
        4
 10
77.93945028704206
 20
6.806950637806038
 10
63.67768135032229
 20
109.7877814068268
 10
63.67768135032229
 20
109.7877814068268
 10
152.2344675129918
 20
148.2991674785893
1001
ACAD
1010
0.0
1020
0.0
1030
0.0
  0
LWPOLYLINE
  5
26C0
102
{ACAD_REACTORS
330
27DC
102
}
330
1F
100
AcDbEntity
  8
Sohlbank
100
AcDbPolyline
 90
       10
 70
     0
 43
0.0
 10
112.1513091061345
 20
159.7877816946986
 10
112.1513091061345
 20
147.1877821948848
 10
112.1513091061345
 20
143.1877821948846
 10
112.1513091061347
 20
114.7877816946985
 42
0.414213562373094
 10
115.1513091061348
 20
111.7877816946985
 10
169.1513091061348
 20
111.7877816946985
 10
177.151309106134
 20
111.7877816946985
 42
0.4142135623730951
 10
180.1513091061347
 20
114.7877816946985
 10
180.1513091061347
 20
148.2877816946985
 10
180.1513091061342
 20
159.7877816946986
  0
LINE
  5
26C1
330
1F
100
AcDbEntity
  8
Schlitz-Zapfen
100
AcDbLine
 10
124.1513091061351
 20
111.7877816946985
 30
0.0
 11
124.1513091061351
 21
159.7877816946985
 31
0.0
  0
LINE
  5
26C2
330
1F
100
AcDbEntity
  8
Schlitz-Zapfen
100
AcDbLine
 10
133.6513091061351
 20
111.7877816946985
 30
0.0
 11
133.6513091061351
 21
159.7877816946985
 31
0.0
  0
LINE
  5
26C3
330
1F
100
AcDbEntity
  8
Schlitz-Zapfen
100
AcDbLine
 10
144.6513091061351
 20
111.7877816946985
 30
0.0
 11
144.6513091061351
 21
159.7877816946985
 31
0.0
  0
LINE
  5
26C4
330
1F
100
AcDbEntity
  8
Schlitz-Zapfen
100
AcDbLine
 10
156.6513091061348
 20
111.7877816946985
 30
0.0
 11
156.6513091061348
 21
159.7877816946985
 31
0.0
  0
LINE
  5
26C5
330
1F
100
AcDbEntity
  8
Schraffur
 62
     5
100
AcDbLine
 10
134.1513091061346
 20
159.7877816946985
 30
0.0
 11
134.1513091061346
 21
111.7877816946985
 31
0.0
  0
HATCH
  5
26C6
330
1F
100
AcDbEntity
  8
Schraffur
 62
     5
100
AcDbHatch
 10
0.0
 20
0.0
 30
0.0
210
0.0
220
0.0
230
1.0
  2
STEEL
 70
     0
 71
     0
 91
        4
 92
        7
 72
     1
 73
     1
 93
        7
 10
124.1513091061351
 20
159.7877816946985
 42
0.0
 10
112.1513091061345
 20
159.7877816946985
 42
0.0
 10
112.1513091061345
 20
147.1877821948848
 42
0.0
 10
112.1513091061345
 20
143.1877821948846
 42
0.0
 10
112.1513091061347
 20
114.7877816946985
 42
0.414213562373094
 10
115.1513091061348
 20
111.7877816946985
 42
0.0
 10
124.1513091061351
 20
111.7877816946985
 42
0.0
 97
        0
 92
        7
 72
     0
 73
     1
 93
        4
 10
133.6513091061351
 20
159.7877816946985
 10
124.1513091061351
 20
159.7877816946985
 10
124.1513091061351
 20
111.7877816946985
 10
133.6513091061351
 20
111.7877816946985
 97
        0
 92
        7
 72
     0
 73
     1
 93
        4
 10
134.1513091061346
 20
159.7877816946985
 10
133.6513091061351
 20
159.7877816946985
 10
133.6513091061351
 20
111.7877816946985
 10
134.1513091061346
 20
111.7877816946985
 97
        0
 92
        1
 93
        5
 72
     1
 10
180.1513091061342
 20
159.7877816946986
 11
158.1513091061345
 21
159.7877816946985
 72
     1
 10
158.1513091061345
 20
159.7877816946985
 11
158.1513091061345
 21
111.7877816946985
 72
     1
 10
158.1513091061345
 20
111.7877816946985
 11
177.151309106134
 21
111.7877816946985
 72
     2
 10
177.1513091061343
 20
114.787781694699
 40
3.000000000000451
 50
269.999999999994
 51
359.9999999999988
 73
     1
 72
     1
 10
180.1513091061347
 20
114.7877816946989
 11
180.1513091061342
 21
159.7877816946986
 97
        0
 75
     0
 76
     1
 52
0.0
 41
2.0
 77
     0
 78
     2
 53
45.0
 43
77.93945028704206
 44
6.806950637806038
 45
-4.490128060534575
 46
4.490128060534575
 79
     0
 53
45.0
 43
77.93945028704206
 44
9.981950637806038
 45
-4.490128060534575
 46
4.490128060534575
 79
     0
 47
0.0457875432683008
 98
        6
 10
123.1919051888092
 20
144.6859445753131
 10
127.9618824646458
 20
140.9797045341846
 10
133.965372615167
 20
145.1694762536105
 10
63.67768135032229
 20
109.7877814068268
 10
120.608128231923
 20
137.9498814728046
 10
173.7454225096618
 20
132.4200960964166
1001
ACAD
1010
0.0
1020
0.0
1030
0.0
  0
LINE
  5
26C7
330
1F
100
AcDbEntity
  8
Schraffur
 62
     5
100
AcDbLine
 10
158.1513091061345
 20
159.7877816946985
 30
0.0
 11
158.1513091061345
 21
111.7877816946985
 31
0.0
  0
MTEXT
  5
26C8
330
1F
100
AcDbEntity
  8
0
100
AcDbMText
 10
114.3355384490077
 20
176.9071462809893
 30
0.0
 40
5.0
 41
68.54906907578879
 71
     1
 72
     5
  1
SB 0 - ohne Fräsung\Pmit Bankanschlussleiste
  7
RomanS
 73
     1
 44
1.0
1001
ACAD
1000
MTEXTBEGIN
1070
    73
1070
     1
1070
    44
1040
1.0
1070
    74
1070
     0
1000
MTEXTEND
  0
LWPOLYLINE
  5
26C9
102
{ACAD_REACTORS
330
26E1
330
277E
330
2796
330
2840
102
}
330
1F
100
AcDbEntity
  8
Bemaßung
100
AcDbPolyline
 90
        4
 70
     1
 43
0.0
 10
131.1513091061351
 20
81.78778169469856
 10
161.1513091061351
 20
81.78778169469856
 10
161.1513091061351
 20
111.7877816946985
 10
131.1513091061351
 20
111.7877816946985
  0
DIMENSION
  5
26CA
102
{ACAD_XDICTIONARY
360
26D7
102
}
102
{ACAD_REACTORS
330
26E1
102
}
330
1F
100
AcDbEntity
  8
Bemaßung
100
AcDbDimension
  2
*D23
 10
180.1513091061347
 20
105.9741419454008
 30
0.0
 11
170.6513091061349
 21
105.9741419454008
 31
0.0
 70
   160
 71
     5
 42
18.9999999999996
  3
IDEAL Holz
100
AcDbAlignedDimension
 13
161.1513091061351
 23
107.0507503755457
 33
0.0
 14
180.1513091061347
 24
111.7877816946985
 34
0.0
100
AcDbRotatedDimension
  0
MTEXT
  5
2765
102
{ACAD_REACTORS
330
2840
102
}
330
1F
100
AcDbEntity
  8
0
100
AcDbMText
 10
142.3175339589261
 20
99.87069442062857
 30
0.0
 40
5.0
 41
15.63925811660569
 71
     1
 72
     5
  1
L31
  7
RomanS
 73
     1
 44
1.0
1001
ACAD
1000
MTEXTBEGIN
1070
    73
1070
     1
1070
    44
1040
1.0
1070
    74
1070
     0
1000
MTEXTEND
1000
ACAD_MTEXT_DEFINED_HEIGHT_BEGIN
1070
    46
1040
13.11748362952679
1000
ACAD_MTEXT_DEFINED_HEIGHT_END
  0
DIMENSION
  5
2767
102
{ACAD_XDICTIONARY
360
2774
102
}
102
{ACAD_REACTORS
330
277E
102
}
330
1F
100
AcDbEntity
  8
Bemaßung
100
AcDbDimension
  2
*D24
 10
161.1513091061351
 20
76.27316113759616
 30
0.0
 11
146.1513091061351
 21
78.14816113759616
 31
0.0
 70
    32
 71
     5
 42
30.0
  3
IDEAL Holz
100
AcDbAlignedDimension
 13
131.1513091061351
 23
81.78778169469856
 33
0.0
 14
161.1513091061351
 24
81.78778169469856
 34
0.0
100
AcDbRotatedDimension
  0
DIMENSION
  5
277F
102
{ACAD_XDICTIONARY
360
278C
102
}
102
{ACAD_REACTORS
330
2796
102
}
330
1F
100
AcDbEntity
  8
Bemaßung
100
AcDbDimension
  2
*D25
 10
126.1814766676734
 20
111.7877816946985
 30
0.0
 11
124.3064766676734
 21
96.78778169469858
 31
0.0
 70
    32
 71
     5
 42
30.0
  3
IDEAL Holz
100
AcDbAlignedDimension
 13
131.1513091061351
 23
81.78778169469856
 33
0.0
 14
131.1513091061351
 24
111.7877816946985
 34
0.0
 50
90.0
100
AcDbRotatedDimension
  0
DIMENSION
  5
27C5
102
{ACAD_XDICTIONARY
360
27D2
102
}
102
{ACAD_REACTORS
330
27DC
102
}
330
1F
100
AcDbEntity
  8
Bemaßung
100
AcDbDimension
  2
*D26
 10
186.6044350926822
 20
159.7877816946986
 30
0.0
 11
186.6044350926822
 21
135.7877816946986
 31
0.0
 70
   160
  1
Bestellmaß
 71
     5
 42
48.00000000000006
  3
IDEAL Holz
100
AcDbAlignedDimension
 13
180.1513091061347
 23
111.7877816946985
 33
0.0
 14
180.1513091061342
 24
159.7877816946986
 34
0.0
 50
90.0
100
AcDbRotatedDimension
1001
ACAD
1000
DSTYLE
1002
{
1070
   344
1005
281E
1070
   342
1005
0
1070
   173
1070
     1
1070
   343
1005
117
1070
    76
1070
     1
1002
}
  0
HATCH
  5
2840
330
1F
100
AcDbEntity
  8
Schraffur
 62
    84
100
AcDbHatch
 10
0.0
 20
0.0
 30
0.0
210
0.0
220
0.0
230
1.0
  2
STEEL
 70
     0
 71
     1
 91
        2
 92
        7
 72
     0
 73
     1
 93
        4
 10
131.1513091061351
 20
81.78778169469856
 10
161.1513091061351
 20
81.78778169469856
 10
161.1513091061351
 20
111.7877816946985
 10
131.1513091061351
 20
111.7877816946985
 97
        1
330
26C9
 92
       24
 93
        4
 72
     1
 10
141.0675339589261
 20
93.62069442062857
 11
150.9008672922594
 21
93.62069442062857
 72
     1
 10
150.9008672922594
 20
93.62069442062857
 11
150.9008672922594
 21
101.1206944206285
 72
     1
 10
150.9008672922594
 20
101.1206944206285
 11
141.0675339589261
 21
101.1206944206285
 72
     1
 10
141.0675339589261
 20
101.1206944206285
 11
141.0675339589261
 21
93.62069442062857
 97
        1
330
2765
 75
     0
 76
     1
 52
0.0
 41
2.0
 77
     0
 78
     2
 53
45.0
 43
0.0
 44
0.0
 45
-4.490128060534575
 46
4.490128060534575
 79
     0
 53
45.0
 43
0.0
 44
3.174999999999998
 45
-4.490128060534575
 46
4.490128060534575
 79
     0
 47
0.2974935965482682
 98
        1
 10
140.887234527775
 20
92.70938245521348
1001
GradientColor1ACI
1070
     5
1001
GradientColor2ACI
1070
     2
1001
ACAD
1010
0.0
1020
0.0
1030
0.0
  0
VIEWPORT
  5
1CC5
102
{ACAD_XDICTIONARY
360
2943
102
}
330
1CC3
100
AcDbEntity
 67
     1
  8
0
100
AcDbViewport
 10
152.8166546816126
 20
98.98666420040706
 30
0.0
 40
415.4629030150672
 41
212.5839103302903
 68
     1
 69
     1
 12
152.8166546816126
 22
98.98666420040706
 13
0.0
 23
0.0
 14
10.0
 24
10.0
 15
10.0
 25
10.0
 16
0.0
 26
0.0
 36
1.0
 17
0.0
 27
0.0
 37
0.0
 42
50.0
 43
0.0
 44
0.0
 45
212.5839103302903
 50
0.0
 51
0.0
 72
  1000
 90
   557088
  1

281
     0
 71
     1
 74
     0
110
0.0
120
0.0
130
0.0
111
1.0
121
0.0
131
0.0
112
0.0
122
1.0
132
0.0
 79
     0
146
0.0
  0
VIEWPORT
  5
1CC6
102
{ACAD_XDICTIONARY
360
2945
102
}
330
1CC3
100
AcDbEntity
 67
     1
  8
0
100
AcDbViewport
 10
142.515920700506
 20
98.98666347898036
 30
0.0
 40
297.0318419579695
 41
209.9733273852992
 68
     2
 69
     2
 12
148.3172137040858
 22
104.8684306445656
 13
0.0
 23
0.0
 14
10.0
 24
10.0
 15
10.0
 25
10.0
 16
0.0
 26
0.0
 36
1.0
 17
0.0
 27
0.0
 37
0.0
 42
50.0
 43
0.0
 44
0.0
 45
209.9733239306096
 50
0.0
 51
0.0
 72
  1000
 90
   819296
  1

281
     0
 71
     1
 74
     0
110
0.0
120
0.0
130
0.0
111
1.0
121
0.0
131
0.0
112
0.0
122
1.0
132
0.0
 79
     0
146
0.0
  0
ENDSEC
  0
SECTION
  2
OBJECTS
  0
DICTIONARY
  5
C
330
0
100
AcDbDictionary
281
     1
  3
ACAD_CIP_PREVIOUS_PRODUCT_INFO
350
26A9
  3
ACAD_COLOR
350
6B
  3
ACAD_GROUP
350
D
  3
ACAD_LAYOUT
350
1A
  3
ACAD_MATERIAL
350
6A
  3
ACAD_MLEADERSTYLE
350
26A4
  3
ACAD_MLINESTYLE
350
17
  3
ACAD_PLOTSETTINGS
350
19
  3
ACAD_PLOTSTYLENAME
350
E
  3
ACAD_SCALELIST
350
2692
  3
ACAD_TABLESTYLE
350
7E
  3
ACAD_VISUALSTYLE
350
EF
  3
ACDB_RECOMPOSE_DATA
350
291E
  3
AcDbVariableDictionary
350
5E
  3
DWGPROPS
350
291F
  0
DICTIONARY
  5
120
330
2
100
AcDbDictionary
280
     1
281
     1
  3
ACAD_LAYERSTATES
360
121
  0
DICTIONARY
  5
28B7
330
10
100
AcDbDictionary
280
     1
281
     1
  3
ADSK_XREC_LAYER_RECONCILED
360
28B8
  0
DICTIONARY
  5
28B9
330
1EB9
100
AcDbDictionary
280
     1
281
     1
  3
ADSK_XREC_LAYER_RECONCILED
360
28BA
  0
DICTIONARY
  5
28BB
330
1EBC
100
AcDbDictionary
280
     1
281
     1
  3
ADSK_XREC_LAYER_RECONCILED
360
28BC
  0
DICTIONARY
  5
28BD
330
1EBD
100
AcDbDictionary
280
     1
281
     1
  3
ADSK_XREC_LAYER_RECONCILED
360
28BE
  0
DICTIONARY
  5
28BF
330
1EBE
100
AcDbDictionary
280
     1
281
     1
  3
ADSK_XREC_LAYER_RECONCILED
360
28C0
  0
DICTIONARY
  5
28C1
330
22EA
100
AcDbDictionary
280
     1
281
     1
  3
ADSK_XREC_LAYER_RECONCILED
360
28C2
  0
DICTIONARY
  5
28C3
330
22EB
100
AcDbDictionary
280
     1
281
     1
  3
ADSK_XREC_LAYER_RECONCILED
360
28C4
  0
DICTIONARY
  5
732
330
1F
100
AcDbDictionary
280
     1
281
     1
  3
ACAD_SORTENTS
360
733
  0
DICTIONARY
  5
1F3E
330
1F3D
100
AcDbDictionary
280
     1
281
     1
  3
ACAD_DIMASSOC
360
1F3F
  0
DICTIONARY
  5
2948
330
1F4D
100
AcDbDictionary
280
     1
281
     1
  3
ACAD_MTEXT_RT
360
2949
  0
DICTIONARY
  5
294A
330
22AA
100
AcDbDictionary
280
     1
281
     1
  3
ACAD_MTEXT_RT
360
294B
  0
DICTIONARY
  5
26D7
330
26CA
100
AcDbDictionary
280
     1
281
     1
  3
ACAD_DIMASSOC
360
26E1
  0
DICTIONARY
  5
2774
330
2767
100
AcDbDictionary
280
     1
281
     1
  3
ACAD_DIMASSOC
360
277E
  0
DICTIONARY
  5
278C
330
277F
100
AcDbDictionary
280
     1
281
     1
  3
ACAD_DIMASSOC
360
2796
  0
DICTIONARY
  5
27D2
330
27C5
100
AcDbDictionary
280
     1
281
     1
  3
ACAD_DIMASSOC
360
27DC
  0
DICTIONARY
  5
2943
330
1CC5
100
AcDbDictionary
280
     1
281
     1
  3
ACAD_XREC_ROUNDTRIP
360
2944
  0
DICTIONARY
  5
2945
330
1CC6
100
AcDbDictionary
280
     1
281
     1
  3
ACAD_XREC_ROUNDTRIP
360
2946
  0
XRECORD
  5
26A9
102
{ACAD_REACTORS
330
C
102
}
330
C
100
AcDbXrecord
280
     1
300
ACDLT
300
2012
300

  0
DICTIONARY
  5
6B
102
{ACAD_REACTORS
330
C
102
}
330
C
100
AcDbDictionary
281
     1
  0
DICTIONARY
  5
D
102
{ACAD_REACTORS
330
C
102
}
330
C
100
AcDbDictionary
281
     1
  0
DICTIONARY
  5
1A
102
{ACAD_REACTORS
330
C
102
}
330
C
100
AcDbDictionary
281
     1
  3
Layout A4-quer
350
1CC8
  3
Model
350
22
  0
DICTIONARY
  5
6A
102
{ACAD_REACTORS
330
C
102
}
330
C
100
AcDbDictionary
281
     1
  3
ByBlock
350
ED
  3
ByLayer
350
EC
  3
Global
350
EE
  0
DICTIONARY
  5
26A4
102
{ACAD_REACTORS
330
C
102
}
330
C
100
AcDbDictionary
281
     1
  3
Standard
350
26A5
  0
DICTIONARY
  5
17
102
{ACAD_REACTORS
330
C
102
}
330
C
100
AcDbDictionary
281
     1
  3
Standard
350
18
  0
DICTIONARY
  5
19
102
{ACAD_REACTORS
330
C
102
}
330
C
100
AcDbDictionary
281
     1
  0
ACDBDICTIONARYWDFLT
  5
E
102
{ACAD_REACTORS
330
C
102
}
330
C
100
AcDbDictionary
281
     1
  3
Normal
350
F
100
AcDbDictionaryWithDefault
340
F
  0
DICTIONARY
  5
2692
102
{ACAD_REACTORS
330
C
102
}
330
C
100
AcDbDictionary
281
     1
  3
A0
350
2693
  3
A1
350
2694
  3
A2
350
2695
  3
A3
350
2696
  3
A4
350
2697
  3
A5
350
2698
  3
A6
350
2699
  3
A7
350
269A
  3
A8
350
269B
  3
A9
350
269C
  3
B0
350
269D
  3
B1
350
269E
  3
B2
350
269F
  3
B3
350
26A0
  3
B4
350
26A1
  3
B5
350
26A2
  3
B6
350
26A3
  0
DICTIONARY
  5
7E
102
{ACAD_REACTORS
330
C
102
}
330
C
100
AcDbDictionary
281
     1
  3
Standard
350
7F
  0
DICTIONARY
  5
EF
102
{ACAD_REACTORS
330
C
102
}
330
C
100
AcDbDictionary
281
     1
  3
2dWireframe
350
F5
  3
3D Hidden
350
F7
  3
3dWireframe
350
F6
  3
Basic
350
F4
  3
Brighten
350
FB
  3
ColorChange
350
FF
  3
Conceptual
350
F8
  3
Dim
350
FA
  3
EdgeColorOff
350
2691
  3
Facepattern
350
FE
  3
Flat
350
F0
  3
FlatWithEdges
350
F1
  3
Gouraud
350
F2
  3
GouraudWithEdges
350
F3
  3
Hidden
350
2689
  3
JitterOff
350
268F
  3
Linepattern
350
FD
  3
OverhangOff
350
2690
  3
Realistic
350
F9
  3
Shaded
350
268E
  3
Shaded with edges
350
268D
  3
Shades of Gray
350
268A
  3
Sketchy
350
268B
  3
Thicken
350
FC
  3
Wireframe
350
2688
  3
X-Ray
350
268C
  0
XRECORD
  5
291E
102
{ACAD_REACTORS
330
C
102
}
330
C
100
AcDbXrecord
280
     1
 90
        1
330
7F
  0
DICTIONARY
  5
5E
102
{ACAD_REACTORS
330
C
102
}
330
C
100
AcDbDictionary
281
     1
  3
CANNOSCALE
350
28C6
  3
CMLEADERSTYLE
350
28C5
  3
CTABLESTYLE
350
84
  3
DIMASSOC
350
5F
  3
HIDETEXT
350
63
  3
INDEXCTL
350
70A
  3
PSOLHEIGHT
350
291B
  3
PSOLWIDTH
350
291A
  3
SORTENTS
350
709
  3
XCLIPFRAME
350
291C
  0
XRECORD
  5
291F
102
{ACAD_REACTORS
330
C
102
}
330
C
100
AcDbXrecord
280
     1
  1
DWGPROPS COOKIE
  2

  3

  4

  6

  7

  8
skoelzer
  9

300
=
301
=
302
=
303
=
304
=
305
=
306
=
307
=
308
=
309
=
 40
0.1010437847222222
 41
2454531.576644907
 42
2456632.341888519
  1

 90
        0
  0
DICTIONARY
  5
121
102
{ACAD_REACTORS
330
120
102
}
330
120
100
AcDbDictionary
281
     1
  0
XRECORD
  5
28B8
102
{ACAD_REACTORS
330
28B7
102
}
330
28B7
100
AcDbXrecord
280
     1
290
     1
  0
XRECORD
  5
28BA
102
{ACAD_REACTORS
330
28B9
102
}
330
28B9
100
AcDbXrecord
280
     1
290
     1
  0
XRECORD
  5
28BC
102
{ACAD_REACTORS
330
28BB
102
}
330
28BB
100
AcDbXrecord
280
     1
290
     1
  0
XRECORD
  5
28BE
102
{ACAD_REACTORS
330
28BD
102
}
330
28BD
100
AcDbXrecord
280
     1
290
     1
  0
XRECORD
  5
28C0
102
{ACAD_REACTORS
330
28BF
102
}
330
28BF
100
AcDbXrecord
280
     1
290
     1
  0
XRECORD
  5
28C2
102
{ACAD_REACTORS
330
28C1
102
}
330
28C1
100
AcDbXrecord
280
     1
290
     1
  0
XRECORD
  5
28C4
102
{ACAD_REACTORS
330
28C3
102
}
330
28C3
100
AcDbXrecord
280
     1
290
     1
  0
SORTENTSTABLE
  5
733
102
{ACAD_REACTORS
330
732
102
}
330
732
100
AcDbSortentsTable
330
1F
331
26C5
  5
26C6
331
22AC
  5
22AC
331
26C1
  5
26C2
331
1F34
  5
1F34
331
1F30
  5
1F30
331
1F2C
  5
1F2C
331
1F28
  5
1F28
331
1F24
  5
1F24
331
1F20
  5
1F20
331
26C8
  5
26C9
331
1F4C
  5
1F4C
331
1F48
  5
1F48
331
1F18
  5
1F18
331
1F14
  5
1F14
331
1F44
  5
1F44
331
1F40
  5
1F40
331
1F38
  5
1F38
331
26C4
  5
26C5
331
26C0
  5
26C1
331
2840
  5
2765
331
1F37
  5
1F37
331
1F33
  5
1F33
331
277F
  5
282A
331
2767
  5
2829
331
1F2F
  5
1F2F
331
1F2B
  5
1F2B
331
1F27
  5
1F27
331
1F23
  5
1F23
331
1F4B
  5
1F4B
331
1F1F
  5
1F1F
331
1F1B
  5
1F1B
331
1F17
  5
1F17
331
1F13
  5
1F13
331
1F47
  5
1F47
331
1F43
  5
1F43
331
1F3B
  5
1F3B
331
26C7
  5
26C8
331
26C3
  5
26C4
331
22AA
  5
22AA
331
26BF
  5
26C0
331
1F36
  5
1F36
331
1F2E
  5
1F2E
331
1F2A
  5
1F2A
331
1F22
  5
1F22
331
26CA
  5
277F
331
1F4A
  5
1F4A
331
1F1E
  5
1F1E
331
1F1A
  5
1F1A
331
1F16
  5
1F16
331
1F46
  5
1F46
331
1F42
  5
1F42
331
1F3A
  5
1F3A
331
26C6
  5
26C7
331
26C2
  5
26C3
331
27C5
  5
282B
331
1F35
  5
1F35
331
1F31
  5
1F31
331
2765
  5
27C5
331
1F2D
  5
1F2D
331
1F29
  5
1F29
331
1F25
  5
1F25
331
1F21
  5
1F21
331
26C9
  5
2767
331
1F4D
  5
1F4D
331
1F49
  5
1F49
331
1F1D
  5
1F1D
331
1F19
  5
1F19
331
1F15
  5
1F15
331
1F45
  5
1F45
331
1F41
  5
1F41
331
1F3D
  5
1F3D
331
1F39
  5
1F39
  0
DIMASSOC
  5
1F3F
102
{ACAD_REACTORS
330
1F3E
102
}
330
1F3E
100
AcDbDimAssoc
330
1F3D
 90
        3
 70
     0
 71
     0
  1
AcDbOsnapPointRef
 72
    13
331
1F34
 73
     2
 91
        2
 40
0.0
 10
0.0
 20
0.0
 30
2.000000000000000E+50
 75
     0
  1
AcDbOsnapPointRef
 72
    10
331
1F34
 73
     2
 91
       23
 40
0.9241970858579492
 10
0.0
 20
0.0
 30
0.0
 75
     0
  0
XRECORD
  5
2949
102
{ACAD_REACTORS
330
2948
102
}
330
2948
100
AcDbXrecord
280
     1
 40
889765.0
  1
{\fArial|b1|i0|c0|p34;Standard-Fensterbankanschlüsse - Holzfenster IDEAL IV68xxxx\P\fArial|b0|i0|c0|p34;\H0.8x;Standardfräsungen}
  0
XRECORD
  5
294B
102
{ACAD_REACTORS
330
294A
102
}
330
294A
100
AcDbXrecord
280
     1
 40
293718.0
  1
{\fArial|b0|i0|c0|p34;Zeichnung ohne Gewähr; Änderungen vorbehalten}
  0
DIMASSOC
  5
26E1
102
{ACAD_REACTORS
330
26D7
102
}
330
26D7
100
AcDbDimAssoc
330
26CA
 90
        1
 70
     0
 71
     0
  1
AcDbOsnapPointRef
 72
    10
331
26C9
 73
     2
 91
        2
 40
0.8420989560282382
 10
0.0
 20
0.0
 30
0.0
 75
     0
  0
DIMASSOC
  5
277E
102
{ACAD_REACTORS
330
2774
102
}
330
2774
100
AcDbDimAssoc
330
2767
 90
        3
 70
     0
 71
     0
  1
AcDbOsnapPointRef
 72
    13
331
26C9
 73
     2
 91
        1
 40
0.0
 10
0.0
 20
0.0
 30
2.000000000000000E+50
 75
     0
  1
AcDbOsnapPointRef
 72
     1
331
26C9
 73
     2
 91
        1
 40
1.0
 10
0.0
 20
0.0
 30
2.000000000000000E+50
 75
     0
  0
DIMASSOC
  5
2796
102
{ACAD_REACTORS
330
278C
102
}
330
278C
100
AcDbDimAssoc
330
277F
 90
        2
 70
     0
 71
     0
  1
AcDbOsnapPointRef
 72
     1
331
26C9
 73
     2
 91
        3
 40
1.0
 10
0.0
 20
0.0
 30
2.000000000000000E+50
 75
     0
  0
DIMASSOC
  5
27DC
102
{ACAD_REACTORS
330
27D2
102
}
330
27D2
100
AcDbDimAssoc
330
27C5
 90
        2
 70
     0
 71
     0
  1
AcDbOsnapPointRef
 72
     1
331
26C0
 73
     2
 91
        9
 40
1.0
 10
0.0
 20
0.0
 30
2.000000000000000E+50
 75
     0
  0
XRECORD
  5
2944
102
{ACAD_REACTORS
330
2943
102
}
330
2943
100
AcDbXrecord
280
     1
102
SHADEPLOT
 70
     0
  0
XRECORD
  5
2946
102
{ACAD_REACTORS
330
2945
102
}
330
2945
100
AcDbXrecord
280
     1
102
SHADEPLOT
 70
     0
  0
LAYOUT
  5
1CC8
102
{ACAD_XDICTIONARY
360
1CC9
102
}
102
{ACAD_REACTORS
330
1A
102
}
330
1A
100
AcDbPlotSettings
  1

  2
Adobe PDF
  4
A4
  6

 40
3.174999952316281
 41
3.174999952316281
 42
3.175003051757812
 43
3.17498779296875
 44
209.9733276367186
 45
297.0318298339844
 46
2.825000047683714
 47
2.825000047683714
 48
0.0
 49
0.0
140
0.0
141
0.0
142
1.0
143
1.0
 70
   672
 72
     1
 73
     1
 74
     5
  7
Grayscale.ctb
 75
    16
147
1.0
148
0.0
149
0.0
100
AcDbLayout
  1
Layout A4-quer
 70
     1
 71
     1
 10
-5.999987840652463
 20
-5.999999999999997
 11
291.0318419933318
 21
203.9733276367186
 12
0.0
 22
0.0
 32
0.0
 14
-6.000000278478751
 24
-6.000000213669252
 34
0.0
 15
291.0318416794908
 25
203.9733271716299
 35
0.0
146
0.0
 13
0.0
 23
0.0
 33
0.0
 16
1.0
 26
0.0
 36
0.0
 17
0.0
 27
1.0
 37
0.0
 76
     0
330
1CC3
331
1CC5
1001
ACAD_PSEXT
1000
Adobe PDF
1000
Adobe PDF Converter
1000
Eigene Dateien
1000

1070
     0
  0
LAYOUT
  5
22
102
{ACAD_XDICTIONARY
360
2920
102
}
102
{ACAD_REACTORS
330
1A
102
}
330
1A
100
AcDbPlotSettings
  1

  2
\\ideal2000-01\RICOH Aficio MP 161 PCL 6
  4
A4
  6

 40
5.027082920074462
 41
5.027085781097412
 42
5.027069091796875
 43
5.027069091796875
 44
209.9733276367186
 45
296.9259948730469
 46
-48.54041218757629
 47
-66.56407999992372
 48
0.0
 49
0.0
140
0.0
141
0.0
142
1.0
143
1.0
 70
 11940
 72
     1
 73
     1
 74
     2
  7

 75
     0
147
0.6637998983467655
148
0.0
149
0.0
100
AcDbLayout
  1
Model
 70
     1
 71
     0
 10
0.0
 20
0.0
 11
12.0
 21
9.0
 12
0.0
 22
0.0
 32
0.0
 14
0.0
 24
0.0
 34
0.0
 15
0.0
 25
0.0
 35
0.0
146
0.0
 13
0.0
 23
0.0
 33
0.0
 16
1.0
 26
0.0
 36
0.0
 17
0.0
 27
1.0
 37
0.0
 76
     0
330
1F
331
EA
1001
ACAD_PSEXT
1000
\\ideal2000-01\RICOH Aficio MP 161 PCL 6
1000
RICOH Aficio MP 161 PCL 6
1000
Bei Hern Becker an JetAdmin 172.16.99.14
1000

1070
     0
  0
MATERIAL
  5
ED
102
{ACAD_XDICTIONARY
360
718
102
}
102
{ACAD_REACTORS
330
6A
102
}
330
6A
100
AcDbMaterial
  1
ByBlock
  0
MATERIAL
  5
EC
102
{ACAD_XDICTIONARY
360
716
102
}
102
{ACAD_REACTORS
330
6A
102
}
330
6A
100
AcDbMaterial
  1
ByLayer
  0
MATERIAL
  5
EE
102
{ACAD_XDICTIONARY
360
71A
102
}
102
{ACAD_REACTORS
330
6A
102
}
330
6A
100
AcDbMaterial
  1
Global
  0
MLEADERSTYLE
  5
26A5
102
{ACAD_REACTORS
330
26A4
102
}
330
26A4
100
AcDbMLeaderStyle
170
     2
171
     1
172
     0
 90
        2
 40
0.0
 41
0.0
173
     1
 91
-1056964608
340
14
 92
       -2
290
     1
 42
2.0
291
     1
 43
0.36
  3
Standard
 44
4.0
300

342
11
174
     1
178
     6
175
     1
176
     0
 93
-1056964608
 45
4.0
292
     0
297
     0
 46
4.0
 94
-1056964608
 47
1.0
 49
1.0
140
1.0
293
     1
141
0.0
294
     1
177
     0
142
1.0
295
     0
296
     0
143
0.125
1001
ACAD_MLEADERVER
1070
     2
  0
MLINESTYLE
  5
18
102
{ACAD_REACTORS
330
17
102
}
330
17
100
AcDbMlineStyle
  2
STANDARD
 70
     0
  3

 62
   256
 51
90.0
 52
90.0
 71
     2
 49
0.5
 62
   256
  6
BYLAYER
 49
-0.5
 62
   256
  6
BYLAYER
  0
ACDBPLACEHOLDER
  5
F
102
{ACAD_REACTORS
330
E
102
}
330
E
  0
SCALE
  5
2693
102
{ACAD_REACTORS
330
2692
102
}
330
2692
100
AcDbScale
 70
     0
300
1:1
140
1.0
141
1.0
290
     1
  0
SCALE
  5
2694
102
{ACAD_REACTORS
330
2692
102
}
330
2692
100
AcDbScale
 70
     0
300
1:2
140
1.0
141
2.0
290
     0
  0
SCALE
  5
2695
102
{ACAD_REACTORS
330
2692
102
}
330
2692
100
AcDbScale
 70
     0
300
1:4
140
1.0
141
4.0
290
     0
  0
SCALE
  5
2696
102
{ACAD_REACTORS
330
2692
102
}
330
2692
100
AcDbScale
 70
     0
300
1:5
140
1.0
141
5.0
290
     0
  0
SCALE
  5
2697
102
{ACAD_REACTORS
330
2692
102
}
330
2692
100
AcDbScale
 70
     0
300
1:8
140
1.0
141
8.0
290
     0
  0
SCALE
  5
2698
102
{ACAD_REACTORS
330
2692
102
}
330
2692
100
AcDbScale
 70
     0
300
1:10
140
1.0
141
10.0
290
     0
  0
SCALE
  5
2699
102
{ACAD_REACTORS
330
2692
102
}
330
2692
100
AcDbScale
 70
     0
300
1:16
140
1.0
141
16.0
290
     0
  0
SCALE
  5
269A
102
{ACAD_REACTORS
330
2692
102
}
330
2692
100
AcDbScale
 70
     0
300
1:20
140
1.0
141
20.0
290
     0
  0
SCALE
  5
269B
102
{ACAD_REACTORS
330
2692
102
}
330
2692
100
AcDbScale
 70
     0
300
1:30
140
1.0
141
30.0
290
     0
  0
SCALE
  5
269C
102
{ACAD_REACTORS
330
2692
102
}
330
2692
100
AcDbScale
 70
     0
300
1:40
140
1.0
141
40.0
290
     0
  0
SCALE
  5
269D
102
{ACAD_REACTORS
330
2692
102
}
330
2692
100
AcDbScale
 70
     0
300
1:50
140
1.0
141
50.0
290
     0
  0
SCALE
  5
269E
102
{ACAD_REACTORS
330
2692
102
}
330
2692
100
AcDbScale
 70
     0
300
1:100
140
1.0
141
100.0
290
     0
  0
SCALE
  5
269F
102
{ACAD_REACTORS
330
2692
102
}
330
2692
100
AcDbScale
 70
     0
300
2:1
140
2.0
141
1.0
290
     0
  0
SCALE
  5
26A0
102
{ACAD_REACTORS
330
2692
102
}
330
2692
100
AcDbScale
 70
     0
300
4:1
140
4.0
141
1.0
290
     0
  0
SCALE
  5
26A1
102
{ACAD_REACTORS
330
2692
102
}
330
2692
100
AcDbScale
 70
     0
300
8:1
140
8.0
141
1.0
290
     0
  0
SCALE
  5
26A2
102
{ACAD_REACTORS
330
2692
102
}
330
2692
100
AcDbScale
 70
     0
300
10:1
140
10.0
141
1.0
290
     0
  0
SCALE
  5
26A3
102
{ACAD_REACTORS
330
2692
102
}
330
2692
100
AcDbScale
 70
     0
300
100:1
140
100.0
141
1.0
290
     0
  0
TABLESTYLE
  5
7F
102
{ACAD_XDICTIONARY
360
28CA
102
}
102
{ACAD_REACTORS
330
7E
102
}
330
7E
100
AcDbTableStyle
  3
Standard
 70
     0
 71
     0
 40
1.5
 41
1.5
280
     0
281
     0
  7
Standard
140
4.5
170
     2
 62
     0
 63
     7
283
     0
274
    -2
284
     1
 64
     0
275
    -2
285
     1
 65
     0
276
    -2
286
     1
 66
     0
277
    -2
287
     1
 67
     0
278
    -2
288
     1
 68
     0
279
    -2
289
     1
 69
     0
  7
Standard
140
6.0
170
     5
 62
     0
 63
     7
283
     0
274
    -2
284
     1
 64
     0
275
    -2
285
     1
 65
     0
276
    -2
286
     1
 66
     0
277
    -2
287
     1
 67
     0
278
    -2
288
     1
 68
     0
279
    -2
289
     1
 69
     0
  7
Standard
140
4.5
170
     5
 62
     0
 63
     7
283
     0
274
    -2
284
     1
 64
     0
275
    -2
285
     1
 65
     0
276
    -2
286
     1
 66
     0
277
    -2
287
     1
 67
     0
278
    -2
288
     1
 68
     0
279
    -2
289
     1
 69
     0
  0
VISUALSTYLE
  5
F5
102
{ACAD_XDICTIONARY
360
292D
102
}
102
{ACAD_REACTORS
330
EF
102
}
330
EF
100
AcDbVisualStyle
  2

 70
     4
 71
     0
 72
     2
 73
     1
 90
        0
 40
-0.6
 41
-30.0
 62
     5
 63
     7
 74
     1
 91
        4
 64
     7
 65
   257
 75
     1
175
     1
 42
1.0
 92
        0
 66
   257
 43
1.0
 76
     1
 77
     6
 78
     2
 67
     7
 79
     5
170
     0
171
     0
290
     0
174
     0
 93
        1
 44
0.0
173
     0
291
     0
 45
0.0
1001
ACAD
1000
AcDbSavedByObjectVersion
1070
     0
  0
VISUALSTYLE
  5
F7
102
{ACAD_XDICTIONARY
360
2931
102
}
102
{ACAD_REACTORS
330
EF
102
}
330
EF
100
AcDbVisualStyle
  2

 70
     6
 71
     1
 72
     2
 73
     2
 90
        0
 40
-0.6
 41
-30.0
 62
     5
 63
     7
 74
     2
 91
        2
 64
     7
 65
   257
 75
     2
175
     1
 42
40.0
 92
        0
 66
   257
 43
1.0
 76
     1
 77
     6
 78
     2
 67
     7
 79
     3
170
     0
171
     0
290
     0
174
     0
 93
        1
 44
0.0
173
     0
291
     0
 45
0.0
1001
ACAD
1000
AcDbSavedByObjectVersion
1070
     0
  0
VISUALSTYLE
  5
F6
102
{ACAD_XDICTIONARY
360
292F
102
}
102
{ACAD_REACTORS
330
EF
102
}
330
EF
100
AcDbVisualStyle
  2

 70
     5
 71
     0
 72
     2
 73
     1
 90
        0
 40
-0.6
 41
-30.0
 62
     5
 63
     7
 74
     1
 91
        4
 64
     7
 65
   257
 75
     1
175
     1
 42
1.0
 92
        0
 66
   257
 43
1.0
 76
     1
 77
     6
 78
     2
 67
     7
 79
     5
170
     0
171
     0
290
     0
174
     0
 93
        1
 44
0.0
173
     0
291
     0
 45
0.0
1001
ACAD
1000
AcDbSavedByObjectVersion
1070
     0
  0
VISUALSTYLE
  5
F4
102
{ACAD_XDICTIONARY
360
292B
102
}
102
{ACAD_REACTORS
330
EF
102
}
330
EF
100
AcDbVisualStyle
  2

 70
     7
 71
     1
 72
     0
 73
     1
 90
        0
 40
-0.6
 41
-30.0
 62
     5
 63
     7
 74
     0
 91
        4
 64
     7
 65
   257
 75
     1
175
     1
 42
1.0
 92
        8
 66
     7
 43
1.0
 76
     1
 77
     6
 78
     2
 67
     7
 79
     5
170
     0
171
     0
290
     0
174
     0
 93
        1
 44
0.0
173
     0
291
     1
 45
0.0
1001
ACAD
1000
AcDbSavedByObjectVersion
1070
     0
  0
VISUALSTYLE
  5
FB
102
{ACAD_XDICTIONARY
360
2939
102
}
102
{ACAD_REACTORS
330
EF
102
}
330
EF
100
AcDbVisualStyle
  2

 70
    12
 71
     2
 72
     2
 73
     1
 90
        0
 40
-0.6
 41
-30.0
 62
     5
 63
     7
 74
     1
 91
        4
 64
     7
 65
   257
 75
     1
175
     1
 42
1.0
 92
        8
 66
     7
 43
1.0
 76
     1
 77
     6
 78
     2
 67
     7
 79
     5
170
     0
171
     0
290
     0
174
     0
 93
        1
 44
50.0
173
     0
291
     1
 45
0.0
1001
ACAD
1000
AcDbSavedByObjectVersion
1070
     0
  0
VISUALSTYLE
  5
FF
102
{ACAD_XDICTIONARY
360
2941
102
}
102
{ACAD_REACTORS
330
EF
102
}
330
EF
100
AcDbVisualStyle
  2

 70
    16
 71
     2
 72
     2
 73
     3
 90
        0
 40
-0.6
 41
-30.0
 62
     5
 63
     8
 74
     1
 91
        4
 64
     7
 65
   257
 75
     1
175
     1
 42
1.0
 92
        8
 66
     8
 43
1.0
 76
     1
 77
     6
 78
     2
 67
     7
 79
     5
170
     0
171
     0
290
     0
174
     0
 93
        1
 44
0.0
173
     0
291
     1
 45
0.0
1001
ACAD
1000
AcDbSavedByObjectVersion
1070
     0
  0
VISUALSTYLE
  5
F8
102
{ACAD_XDICTIONARY
360
2933
102
}
102
{ACAD_REACTORS
330
EF
102
}
330
EF
100
AcDbVisualStyle
  2

 70
     9
 71
     3
 72
     2
 73
     1
 90
        0
 40
-0.6
 41
-30.0
 62
     5
 63
     7
 74
     2
 91
        2
 64
     7
 65
   257
 75
     1
175
     1
 42
40.0
 92
        8
 66
     7
 43
1.0
 76
     1
 77
     6
 78
     2
 67
     7
 79
     3
170
     0
171
     0
290
     0
174
     0
 93
        1
 44
0.0
173
     0
291
     0
 45
0.0
1001
ACAD
1000
AcDbSavedByObjectVersion
1070
     0
  0
VISUALSTYLE
  5
FA
102
{ACAD_XDICTIONARY
360
2937
102
}
102
{ACAD_REACTORS
330
EF
102
}
330
EF
100
AcDbVisualStyle
  2

 70
    11
 71
     2
 72
     2
 73
     1
 90
        0
 40
-0.6
 41
-30.0
 62
     5
 63
     7
 74
     1
 91
        4
 64
     7
 65
   257
 75
     1
175
     1
 42
1.0
 92
        8
 66
     7
 43
1.0
 76
     1
 77
     6
 78
     2
 67
     7
 79
     5
170
     0
171
     0
290
     0
174
     0
 93
        1
 44
-50.0
173
     0
291
     1
 45
0.0
1001
ACAD
1000
AcDbSavedByObjectVersion
1070
     0
  0
VISUALSTYLE
  5
2691
102
{ACAD_XDICTIONARY
360
295E
102
}
102
{ACAD_REACTORS
330
EF
102
}
330
EF
100
AcDbVisualStyle
  2

 70
    22
 71
     2
 72
     2
 73
     0
 90
        0
 40
-0.6
 41
-30.0
 62
     5
 63
     7
 74
     1
 91
        4
 64
     7
 65
   257
 75
     1
175
     1
 42
1.0
 92
        8
 66
     7
 43
1.0
 76
     1
 77
     6
 78
     2
 67
     7
 79
     5
170
     0
171
     0
290
     0
174
     0
 93
        1
 44
0.0
173
     0
291
     1
 45
0.0
1001
ACAD
1000
AcDbSavedByObjectVersion
1070
     0
  0
VISUALSTYLE
  5
FE
102
{ACAD_XDICTIONARY
360
293F
102
}
102
{ACAD_REACTORS
330
EF
102
}
330
EF
100
AcDbVisualStyle
  2

 70
    15
 71
     2
 72
     2
 73
     1
 90
        0
 40
-0.6
 41
-30.0
 62
     5
 63
     7
 74
     1
 91
        4
 64
     7
 65
   257
 75
     1
175
     1
 42
1.0
 92
        8
 66
     7
 43
1.0
 76
     1
 77
     6
 78
     2
 67
     7
 79
     5
170
     0
171
     0
290
     0
174
     0
 93
        1
 44
0.0
173
     0
291
     1
 45
0.0
1001
ACAD
1000
AcDbSavedByObjectVersion
1070
     0
  0
VISUALSTYLE
  5
F0
102
{ACAD_XDICTIONARY
360
2923
102
}
102
{ACAD_REACTORS
330
EF
102
}
330
EF
100
AcDbVisualStyle
  2

 70
     0
 71
     2
 72
     1
 73
     1
 90
        2
 40
-0.6
 41
30.0
 62
     5
 63
     7
 74
     0
 91
        4
 64
     7
 65
   257
 75
     1
175
     1
 42
1.0
 92
        8
 66
     7
 43
1.0
 76
     1
 77
     6
 78
     2
 67
     7
 79
     5
170
     0
171
     0
290
     0
174
     0
 93
        1
 44
0.0
173
     0
291
     1
 45
0.0
1001
ACAD
1000
AcDbSavedByObjectVersion
1070
     0
  0
VISUALSTYLE
  5
F1
102
{ACAD_XDICTIONARY
360
2925
102
}
102
{ACAD_REACTORS
330
EF
102
}
330
EF
100
AcDbVisualStyle
  2

 70
     1
 71
     2
 72
     1
 73
     1
 90
        2
 40
-0.6
 41
30.0
 62
     5
 63
     7
 74
     1
 91
        4
 64
     7
 65
   257
 75
     1
175
     1
 42
1.0
 92
        0
 66
   257
 43
1.0
 76
     1
 77
     6
 78
     2
 67
     7
 79
     5
170
     0
171
     0
290
     0
174
     0
 93
        1
 44
0.0
173
     0
291
     1
 45
0.0
1001
ACAD
1000
AcDbSavedByObjectVersion
1070
     0
  0
VISUALSTYLE
  5
F2
102
{ACAD_XDICTIONARY
360
2927
102
}
102
{ACAD_REACTORS
330
EF
102
}
330
EF
100
AcDbVisualStyle
  2

 70
     2
 71
     2
 72
     2
 73
     1
 90
        2
 40
-0.6
 41
30.0
 62
     5
 63
     7
 74
     0
 91
        4
 64
     7
 65
   257
 75
     1
175
     1
 42
1.0
 92
        0
 66
     7
 43
1.0
 76
     1
 77
     6
 78
     2
 67
     7
 79
     5
170
     0
171
     0
290
     0
174
     0
 93
        1
 44
0.0
173
     0
291
     1
 45
0.0
1001
ACAD
1000
AcDbSavedByObjectVersion
1070
     0
  0
VISUALSTYLE
  5
F3
102
{ACAD_XDICTIONARY
360
2929
102
}
102
{ACAD_REACTORS
330
EF
102
}
330
EF
100
AcDbVisualStyle
  2

 70
     3
 71
     2
 72
     2
 73
     1
 90
        2
 40
-0.6
 41
30.0
 62
     5
 63
     7
 74
     1
 91
        4
 64
     7
 65
   257
 75
     1
175
     1
 42
1.0
 92
        0
 66
   257
 43
1.0
 76
     1
 77
     6
 78
     2
 67
     7
 79
     5
170
     0
171
     0
290
     0
174
     0
 93
        1
 44
0.0
173
     0
291
     1
 45
0.0
1001
ACAD
1000
AcDbSavedByObjectVersion
1070
     0
  0
VISUALSTYLE
  5
2689
102
{ACAD_XDICTIONARY
360
294E
102
}
102
{ACAD_REACTORS
330
EF
102
}
330
EF
100
AcDbVisualStyle
  2

 70
     6
 71
     1
 72
     2
 73
     2
 90
        0
 40
-0.6
 41
-30.0
 62
     5
 63
     7
 74
     2
 91
        2
 64
     7
 65
   257
 75
     2
175
     1
 42
40.0
 92
        0
 66
   257
 43
1.0
 76
     1
 77
     6
 78
     2
 67
     7
 79
     3
170
     0
171
     0
290
     0
174
     0
 93
        1
 44
0.0
173
     0
291
     0
 45
0.0
1001
ACAD
1000
AcDbSavedByObjectVersion
1070
     0
  0
VISUALSTYLE
  5
268F
102
{ACAD_XDICTIONARY
360
295A
102
}
102
{ACAD_REACTORS
330
EF
102
}
330
EF
100
AcDbVisualStyle
  2

 70
    20
 71
     2
 72
     2
 73
     0
 90
        0
 40
-0.6
 41
-30.0
 62
     5
 63
     7
 74
     1
 91
        4
 64
     7
 65
   257
 75
     1
175
     1
 42
1.0
 92
       10
 66
     7
 43
1.0
 76
     1
 77
     6
 78
     2
 67
     7
 79
     5
170
     0
171
     0
290
     0
174
     0
 93
        1
 44
0.0
173
     0
291
     1
 45
0.0
1001
ACAD
1000
AcDbSavedByObjectVersion
1070
     0
  0
VISUALSTYLE
  5
FD
102
{ACAD_XDICTIONARY
360
293D
102
}
102
{ACAD_REACTORS
330
EF
102
}
330
EF
100
AcDbVisualStyle
  2

 70
    14
 71
     2
 72
     2
 73
     1
 90
        0
 40
-0.6
 41
-30.0
 62
     5
 63
     7
 74
     1
 91
        4
 64
     7
 65
   257
 75
     7
175
     7
 42
1.0
 92
        8
 66
     7
 43
1.0
 76
     1
 77
     6
 78
     2
 67
     7
 79
     5
170
     0
171
     0
290
     0
174
     0
 93
        1
 44
0.0
173
     0
291
     1
 45
0.0
1001
ACAD
1000
AcDbSavedByObjectVersion
1070
     0
  0
VISUALSTYLE
  5
2690
102
{ACAD_XDICTIONARY
360
295C
102
}
102
{ACAD_REACTORS
330
EF
102
}
330
EF
100
AcDbVisualStyle
  2

 70
    21
 71
     2
 72
     2
 73
     0
 90
        0
 40
-0.6
 41
-30.0
 62
     5
 63
     7
 74
     1
 91
        4
 64
     7
 65
   257
 75
     1
175
     1
 42
1.0
 92
        9
 66
     7
 43
1.0
 76
     1
 77
     6
 78
     2
 67
     7
 79
     5
170
     0
171
     0
290
     0
174
     0
 93
        1
 44
0.0
173
     0
291
     1
 45
0.0
1001
ACAD
1000
AcDbSavedByObjectVersion
1070
     0
  0
VISUALSTYLE
  5
F9
102
{ACAD_XDICTIONARY
360
2935
102
}
102
{ACAD_REACTORS
330
EF
102
}
330
EF
100
AcDbVisualStyle
  2

 70
     8
 71
     2
 72
     2
 73
     1
 90
        0
 40
-0.6
 41
-30.0
 62
     5
 63
     7
 74
     1
 91
        0
 64
     7
 65
   257
 75
     1
175
     1
 42
1.0
 92
        8
 66
     8
 43
1.0
 76
     1
 77
     6
 78
     2
 67
     7
 79
     5
170
     0
171
     0
290
     0
174
     0
 93
       13
 44
0.0
173
     0
291
     0
 45
0.0
1001
ACAD
1000
AcDbSavedByObjectVersion
1070
     0
  0
VISUALSTYLE
  5
268E
102
{ACAD_XDICTIONARY
360
2958
102
}
102
{ACAD_REACTORS
330
EF
102
}
330
EF
100
AcDbVisualStyle
  2

 70
    27
 71
     2
 72
     2
 73
     1
 90
        2
 40
-0.6
 41
30.0
 62
     5
 63
     7
 74
     0
 91
        4
 64
     7
 65
   257
 75
     1
175
     1
 42
1.0
 92
        8
 66
   257
 43
1.0
 76
     1
 77
     6
 78
     2
 67
     8
 79
     3
170
     0
171
     0
290
     0
174
     0
 93
        5
 44
0.0
173
     0
291
     0
 45
0.0
1001
ACAD
1000
AcDbSavedByObjectVersion
1070
     0
  0
VISUALSTYLE
  5
268D
102
{ACAD_XDICTIONARY
360
2956
102
}
102
{ACAD_REACTORS
330
EF
102
}
330
EF
100
AcDbVisualStyle
  2

 70
    26
 71
     2
 72
     2
 73
     1
 90
        2
 40
-0.6
 41
30.0
 62
     5
 63
     7
 74
     1
 91
       10
 64
     7
 65
   257
 75
     2
175
     1
 42
1.0
 92
        8
 66
   257
 43
1.0
 76
     1
 77
     6
 78
     2
 67
     7
 79
     3
170
     0
171
     0
290
     0
174
     0
 93
        5
 44
0.0
173
     0
291
     0
 45
0.0
1001
ACAD
1000
AcDbSavedByObjectVersion
1070
     0
  0
VISUALSTYLE
  5
268A
102
{ACAD_XDICTIONARY
360
2950
102
}
102
{ACAD_REACTORS
330
EF
102
}
330
EF
100
AcDbVisualStyle
  2

 70
    23
 71
     2
 72
     2
 73
     3
 90
        0
 40
-0.6
 41
-30.0
 62
     5
 63
     7
 74
     2
 91
        2
 64
     7
 65
     7
 75
     1
175
     1
 42
40.0
 92
        8
 66
     7
 43
1.0
 76
     1
 77
     6
 78
     2
 67
     7
 79
     3
170
     0
171
     0
290
     0
174
     0
 93
        1
 44
0.0
173
     0
291
     0
 45
0.0
1001
ACAD
1000
AcDbSavedByObjectVersion
1070
     0
  0
VISUALSTYLE
  5
268B
102
{ACAD_XDICTIONARY
360
2952
102
}
102
{ACAD_REACTORS
330
EF
102
}
330
EF
100
AcDbVisualStyle
  2

 70
    24
 71
     1
 72
     2
 73
     2
 90
        0
 40
-0.6
 41
-30.0
 62
     5
 63
     7
 74
     2
 91
        2
 64
     7
 65
     7
 75
     1
175
     1
 42
40.0
 92
       11
 66
     7
 43
1.0
 76
     1
 77
     6
 78
     2
 67
     7
 79
     6
170
     0
171
     0
290
     0
174
     0
 93
        1
 44
0.0
173
     0
291
     0
 45
0.0
1001
ACAD
1000
AcDbSavedByObjectVersion
1070
     0
  0
VISUALSTYLE
  5
FC
102
{ACAD_XDICTIONARY
360
293B
102
}
102
{ACAD_REACTORS
330
EF
102
}
330
EF
100
AcDbVisualStyle
  2

 70
    13
 71
     2
 72
     2
 73
     1
 90
        0
 40
-0.6
 41
-30.0
 62
     5
 63
     7
 74
     1
 91
        4
 64
     7
 65
   257
 75
     1
175
     1
 42
1.0
 92
       12
 66
     7
 43
1.0
 76
     1
 77
     6
 78
     2
 67
     7
 79
     5
170
     0
171
     0
290
     0
174
     0
 93
        1
 44
0.0
173
     0
291
     1
 45
0.0
1001
ACAD
1000
AcDbSavedByObjectVersion
1070
     0
  0
VISUALSTYLE
  5
2688
102
{ACAD_XDICTIONARY
360
294C
102
}
102
{ACAD_REACTORS
330
EF
102
}
330
EF
100
AcDbVisualStyle
  2

 70
     5
 71
     0
 72
     2
 73
     0
 90
        0
 40
-0.6
 41
-30.0
 62
     5
 63
     7
 74
     1
 91
        4
 64
     7
 65
   257
 75
     1
175
     1
 42
1.0
 92
        0
 66
   257
 43
1.0
 76
     1
 77
     6
 78
     2
 67
     7
 79
     3
170
     0
171
     0
290
     0
174
     0
 93
        1
 44
0.0
173
     0
291
     0
 45
0.0
1001
ACAD
1000
AcDbSavedByObjectVersion
1070
     0
  0
VISUALSTYLE
  5
268C
102
{ACAD_XDICTIONARY
360
2954
102
}
102
{ACAD_REACTORS
330
EF
102
}
330
EF
100
AcDbVisualStyle
  2

 70
    25
 71
     2
 72
     2
 73
     1
 90
        1
 40
0.5
 41
-30.0
 62
     5
 63
     7
 74
     1
 91
        0
 64
     7
 65
   257
 75
     1
175
     1
 42
1.0
 92
        8
 66
     7
 43
1.0
 76
     1
 77
     6
 78
     2
 67
     7
 79
     3
170
     0
171
     0
290
     0
174
     0
 93
       13
 44
0.0
173
     0
291
     0
 45
0.0
1001
ACAD
1000
AcDbSavedByObjectVersion
1070
     0
  0
DICTIONARYVAR
  5
28C6
102
{ACAD_REACTORS
330
5E
102
}
330
5E
100
DictionaryVariables
280
     0
  1
1:1
  0
DICTIONARYVAR
  5
28C5
102
{ACAD_REACTORS
330
5E
102
}
330
5E
100
DictionaryVariables
280
     0
  1
STANDARD
  0
DICTIONARYVAR
  5
84
102
{ACAD_REACTORS
330
5E
102
}
330
5E
100
DictionaryVariables
280
     0
  1
STANDARD
  0
DICTIONARYVAR
  5
5F
102
{ACAD_REACTORS
330
5E
102
}
330
5E
100
DictionaryVariables
280
     0
  1
2
  0
DICTIONARYVAR
  5
63
102
{ACAD_REACTORS
330
5E
102
}
330
5E
100
DictionaryVariables
280
     0
  1
1
  0
DICTIONARYVAR
  5
70A
102
{ACAD_REACTORS
330
5E
102
}
330
5E
100
DictionaryVariables
280
     0
  1
0
  0
DICTIONARYVAR
  5
291B
102
{ACAD_REACTORS
330
5E
102
}
330
5E
100
DictionaryVariables
280
     0
  1
80.000000
  0
DICTIONARYVAR
  5
291A
102
{ACAD_REACTORS
330
5E
102
}
330
5E
100
DictionaryVariables
280
     0
  1
5.000000
  0
DICTIONARYVAR
  5
709
102
{ACAD_REACTORS
330
5E
102
}
330
5E
100
DictionaryVariables
280
     0
  1
127
  0
DICTIONARYVAR
  5
291C
102
{ACAD_REACTORS
330
5E
102
}
330
5E
100
DictionaryVariables
280
     0
  1
2
  0
DICTIONARY
  5
1CC9
330
1CC8
100
AcDbDictionary
280
     1
281
     1
  3
ACAD_XREC_ROUNDTRIP
360
2947
  3
ADSK_XREC_LAYOUTTHUMBNAIL
360
1CCA
  0
DICTIONARY
  5
2920
330
22
100
AcDbDictionary
280
     1
281
     1
  3
ACAD_XREC_ROUNDTRIP
360
2921
  0
DICTIONARY
  5
718
330
ED
100
AcDbDictionary
280
     1
281
     1
  3
ACAD_XREC_ROUNDTRIP
360
719
  0
DICTIONARY
  5
716
330
EC
100
AcDbDictionary
280
     1
281
     1
  3
ACAD_XREC_ROUNDTRIP
360
717
  0
DICTIONARY
  5
71A
330
EE
100
AcDbDictionary
280
     1
281
     1
  3
ACAD_XREC_ROUNDTRIP
360
71B
  0
DICTIONARY
  5
28CA
330
7F
100
AcDbDictionary
280
     1
281
     1
  3
ACAD_ROUNDTRIP_2008_TABLESTYLE_CELLSTYLEMAP
360
291D
  3
ACAD_XREC_ROUNDTRIP
360
2922
  0
DICTIONARY
  5
292D
330
F5
100
AcDbDictionary
280
     1
281
     1
  3
ACAD_XREC_ROUNDTRIP
360
292E
  0
DICTIONARY
  5
2931
330
F7
100
AcDbDictionary
280
     1
281
     1
  3
ACAD_XREC_ROUNDTRIP
360
2932
  0
DICTIONARY
  5
292F
330
F6
100
AcDbDictionary
280
     1
281
     1
  3
ACAD_XREC_ROUNDTRIP
360
2930
  0
DICTIONARY
  5
292B
330
F4
100
AcDbDictionary
280
     1
281
     1
  3
ACAD_XREC_ROUNDTRIP
360
292C
  0
DICTIONARY
  5
2939
330
FB
100
AcDbDictionary
280
     1
281
     1
  3
ACAD_XREC_ROUNDTRIP
360
293A
  0
DICTIONARY
  5
2941
330
FF
100
AcDbDictionary
280
     1
281
     1
  3
ACAD_XREC_ROUNDTRIP
360
2942
  0
DICTIONARY
  5
2933
330
F8
100
AcDbDictionary
280
     1
281
     1
  3
ACAD_XREC_ROUNDTRIP
360
2934
  0
DICTIONARY
  5
2937
330
FA
100
AcDbDictionary
280
     1
281
     1
  3
ACAD_XREC_ROUNDTRIP
360
2938
  0
DICTIONARY
  5
295E
330
2691
100
AcDbDictionary
280
     1
281
     1
  3
ACAD_XREC_ROUNDTRIP
360
295F
  0
DICTIONARY
  5
293F
330
FE
100
AcDbDictionary
280
     1
281
     1
  3
ACAD_XREC_ROUNDTRIP
360
2940
  0
DICTIONARY
  5
2923
330
F0
100
AcDbDictionary
280
     1
281
     1
  3
ACAD_XREC_ROUNDTRIP
360
2924
  0
DICTIONARY
  5
2925
330
F1
100
AcDbDictionary
280
     1
281
     1
  3
ACAD_XREC_ROUNDTRIP
360
2926
  0
DICTIONARY
  5
2927
330
F2
100
AcDbDictionary
280
     1
281
     1
  3
ACAD_XREC_ROUNDTRIP
360
2928
  0
DICTIONARY
  5
2929
330
F3
100
AcDbDictionary
280
     1
281
     1
  3
ACAD_XREC_ROUNDTRIP
360
292A
  0
DICTIONARY
  5
294E
330
2689
100
AcDbDictionary
280
     1
281
     1
  3
ACAD_XREC_ROUNDTRIP
360
294F
  0
DICTIONARY
  5
295A
330
268F
100
AcDbDictionary
280
     1
281
     1
  3
ACAD_XREC_ROUNDTRIP
360
295B
  0
DICTIONARY
  5
293D
330
FD
100
AcDbDictionary
280
     1
281
     1
  3
ACAD_XREC_ROUNDTRIP
360
293E
  0
DICTIONARY
  5
295C
330
2690
100
AcDbDictionary
280
     1
281
     1
  3
ACAD_XREC_ROUNDTRIP
360
295D
  0
DICTIONARY
  5
2935
330
F9
100
AcDbDictionary
280
     1
281
     1
  3
ACAD_XREC_ROUNDTRIP
360
2936
  0
DICTIONARY
  5
2958
330
268E
100
AcDbDictionary
280
     1
281
     1
  3
ACAD_XREC_ROUNDTRIP
360
2959
  0
DICTIONARY
  5
2956
330
268D
100
AcDbDictionary
280
     1
281
     1
  3
ACAD_XREC_ROUNDTRIP
360
2957
  0
DICTIONARY
  5
2950
330
268A
100
AcDbDictionary
280
     1
281
     1
  3
ACAD_XREC_ROUNDTRIP
360
2951
  0
DICTIONARY
  5
2952
330
268B
100
AcDbDictionary
280
     1
281
     1
  3
ACAD_XREC_ROUNDTRIP
360
2953
  0
DICTIONARY
  5
293B
330
FC
100
AcDbDictionary
280
     1
281
     1
  3
ACAD_XREC_ROUNDTRIP
360
293C
  0
DICTIONARY
  5
294C
330
2688
100
AcDbDictionary
280
     1
281
     1
  3
ACAD_XREC_ROUNDTRIP
360
294D
  0
DICTIONARY
  5
2954
330
268C
100
AcDbDictionary
280
     1
281
     1
  3
ACAD_XREC_ROUNDTRIP
360
2955
  0
XRECORD
  5
2947
102
{ACAD_REACTORS
330
1CC9
102
}
330
1CC9
100
AcDbXrecord
280
     1
102
SHADEPLOT
 70
     0
102
SHADEPLOTRESLEVEL
 70
     2
102
SHADEPLOTCUSTOMDPI
 70
   300
  0
XRECORD
  5
1CCA
102
{ACAD_REACTORS
330
1CC9
102
}
330
1CC9
100
AcDbXrecord
280
     1
310
28000000B40000007F00000001000800000000004C59000000000000000000000001000000000000FFFFFF0000000000FFFFFF000000000000000000000000000000000000000000000000000000000000000000330000006600000099000000CC000000FF00000000330000333300006633000099330000CC330000FF3300
310
0000660000336600006666000099660000CC660000FF66000000990000339900006699000099990000CC990000FF99000000CC000033CC000066CC000099CC0000CCCC0000FFCC000000FF000033FF000066FF000099FF0000CCFF0000FFFF000000003300330033006600330099003300CC003300FF003300003333003333
310
33006633330099333300CC333300FF33330000663300336633006666330099663300CC663300FF66330000993300339933006699330099993300CC993300FF99330000CC330033CC330066CC330099CC3300CCCC3300FFCC330000FF330033FF330066FF330099FF3300CCFF3300FFFF330000006600330066006600660099
310
006600CC006600FF00660000336600333366006633660099336600CC336600FF33660000666600336666006666660099666600CC666600FF66660000996600339966006699660099996600CC996600FF99660000CC660033CC660066CC660099CC6600CCCC6600FFCC660000FF660033FF660066FF660099FF6600CCFF6600
310
FFFF660000009900330099006600990099009900CC009900FF00990000339900333399006633990099339900CC339900FF33990000669900336699006666990099669900CC669900FF66990000999900339999006699990099999900CC999900FF99990000CC990033CC990066CC990099CC9900CCCC9900FFCC990000FF99
310
0033FF990066FF990099FF9900CCFF9900FFFF99000000CC003300CC006600CC009900CC00CC00CC00FF00CC000033CC003333CC006633CC009933CC00CC33CC00FF33CC000066CC003366CC006666CC009966CC00CC66CC00FF66CC000099CC003399CC006699CC009999CC00CC99CC00FF99CC0000CCCC0033CCCC0066CC
310
CC0099CCCC00CCCCCC00FFCCCC0000FFCC0033FFCC0066FFCC0099FFCC00CCFFCC00FFFFCC000000FF003300FF006600FF009900FF00CC00FF00FF00FF000033FF003333FF006633FF009933FF00CC33FF00FF33FF000066FF003366FF006666FF009966FF00CC66FF00FF66FF000099FF003399FF006699FF009999FF00CC
310
99FF00FF99FF0000CCFF0033CCFF0066CCFF0099CCFF00CCCCFF00FFCCFF0000FFFF0033FFFF0066FFFF0099FFFF00CCFFFF00FFFFFF00000000000D0D0D001A1A1A00282828003535350043434300505050005D5D5D006B6B6B00787878008686860093939300A1A1A100AEAEAE00BBBBBB00C9C9C900D6D6D600E4E4E400
310
F1F1F100FFFFFF0000000000000000000000000000000000000000000000000000000000000000000000000000000000E2E2E2E2E2E2E2E2E2E2E2E2E2E2E2E2E2E2E2E2E2E2E2E2E2E2E2E2E2E2E2E2E2E2E2E2E2E2E2E2E2E2E2E2E2E2E2E2E2E2E2E2E2E2E2E2E2E2E2E2E2E2E2E2E2E2E2E2E2E2E2E2E2E2E2E2E2E2E2
310
E2E2E2E2E2E2E2E2E2E2E2E2E2E2E2E2E2E2E2E2E2E2E2E2E2E2E2E2E2E2E2E2E2E2E2E2E2E2E2E2E2E2E2E2E2E2E2E2E2E2E2E2E2E2E2E2E2E2E2E2E2E2E2E2E2E2E2E2E2E2E2E2E2E2E2E2E2E2E2E2E2E2E2E2E2E2E2E2E2E2E2E2E2E2E2E2E2E2E2E2EFE2F5F5F5F5F5F5F5F5F5F5F5F5F5F5F5F5F5F5F5F5F5F5F5F5F5
310
F5F5F5F5F5F5F5F5F5F5F5F5F5F5F5F5F5F5F5F5F5F5F5F5F5F5F5F5F5F5F5F5F5F5F5F5F5F5F5F5F5F5F5F5F5F5F5F5F5F5F5F5F5F5F5F5F5F5F5F5F5F5F5F5F5F5F5F5F5F5F5F5F5F5F5F5F5F5F5F5F5F5F5F5F5F5F5F5F5F5F5F5F5F5F5F5F5F5F5F5F5F5F5F5F5F5F5F5F5F5F5F5F5F5F5F5F5F5F5F5F5F5F5F5F5F5F5
310
F5F5F5F5F5F5F5F5F5F5F5F5F5F5F5F5F5F5F5F5F5F5F5F5F5E2EFE2F5E2E2E2E2E2E2E2E2F5F5F5F5F5F5F5F5F5E2E2E2E2E2E2E2E2E2E2E2E2E2E2E2E2F5F5F5F5F5F5F5F5F5E2E2E2E2E2E2E2E2E2E2E2E2E2E2E2E2F5F5F5F5F5F5F5F5F5E2E2E2E2E2E2E2E2E2E2E2E2E2E2E2E2F5F5F5F5F5F5F5F5F5E2E2E2E2E2E2
310
E2E2E2E2E2E2E2E2E2E2F5F5F5F5F5F5F5F5F5E2E2E2E2E2E2E2E2E2E2E2E2E2E2E2E2F5F5F5F5F5F5F5F5F5E2E2E2E2E2E2E2E2E2E2E2E2E2E2E2E2F5F5F5F5F5F5F5F5F5E2E2E2E2E2E2E2E2F5E2EFE2F5E2E2E2E2E2E2E2E2E2E2E2E2E2E2E2E2E2E2E2E2E2E2E2E2E2E2E2E2E2E2E2E2E2E2E2E2E2E2E2E2E2E2E2E2E2
310
E2E2E2E2E2E2E2E2E2E2E2E2E2E2E2E2E2E2E2E2E2E2E2E2E2E2E2E2E2E2E2E2E2E2E2E2E2E2E2E2E2E2E2E2E2E2E2E2E2E2E2E2E2E2E2E2E2E2E2E2E2E2E2E2E2E2E2E2E2E2E2E2E2E2E2E2E2E2E2E2E2E2E2E2E2E2E2E2E2E2E2E2E2E2E2E2E2E2E2E2E2E2E2E2E2E2E2E2E2E2E2E2E2E2E2E2E2E2E2E2E2E2E2E2E2E2E2
310
E2E2E2F5E2EFE2F5E2E2F5F5F5F5F5F5F5F5F5F5F5F5F5F5F5F5F5F5F5F5F5F5F5F5F5F5F5F5F5F5F5F5F5F5F5F5F5F5F5F5F5F5F5F5F5F5F5F5F5F5F5F5F5F5F5F5F5F5F5F5F5F5F5F5F5F5F5F5F5F5F5F5F5F5F5F5F5F5F5F5F5F5F5F5F5F5F5F5F5F5F5F5F5F5F5F5F5F5F5F5F5F5F5F5F5F5F5F5F5F5F5F5F5F5F5F5F5
310
F5F5F5F5F5F5F5F5F5F5F5F5F5F5F5F5F5F5F5F5F5F5F5F5F5F5F5F5F5F5F5F5F5F5F5F5F5F5F5F5F5F5F5F5F5F5F5F5F5F5F5F5F5F5E2E2F5E2EFE2F5E2E2F5F5F5F5F5F5F5F5F5F5F5F5F5F5F5F5F5F5F5F5F5F5F5F5F5F5F5F5F5F5F5F5F5F5F5F5F5F5F5F5F5F5F5F5F5F5F5F5F5F5F5F5F5F5F5F5F5F5F5F5F5F5F5F5
310
F5F5F5F5F5F5F5F5F5F5F5F5F5F5F5F5F5F5F5F5F5F5F5F5F5F5F5F5F5F5F5F5F5F5F5F5F5F5F5F5F5F5F5F5F5F5F5F5F5F5F5F5F5F5F5F5F5F5F5F5F5F5F5F5F5F5F5F5F5F5F5F5F5F5F5F5F5F5F5F5F5F5F5F5F5F5F5F5F5F5F5F5F5F5F5F5F5F5F5F5F5F5F5F5F5F5F5E2E2F5E2EFE2F5E2E2F5F5F5F5F5F5F5F5F5F5F5
310
F5F5F5F5F5F5F5F5F5F5F5F5F5F5F5F5F5F5F5F5F5F5F5F5F5F5F5F5F5F5F5F5F5F5F5F5F5F5F5F5F5F5F5F5F5F5F5F5F5F5F5F5F5F5F5F5F5F5F5F5F5F5F5F5F5F5F5F5F5F5F5F5F5F5F5F5F5F5F5F5F5F5F5F5F5F5F5F5F5F5F5F5F5F5F5F5F5F5F5F5F5F5F5F5F5F5F5F5F5F5F5F5F5F5F5F5F5F5F5F5F5F5F5F5F5F5F5
310
F5F5F5F5F5F5F5F5F5F5F5F5F5F5F5F5F5F5F5F5F5F5F5F5F5F5F5F5F5F5F5F5F5E2E2F5E2EFE2F5E2E2F5F5F5F5F5F5F5F5F5F5F5F5F5F5F5F5F5F5F5F5F5F5F5F5F5F5F5F5F5F5F5F5F5F5F5F5F5F5F5F5F5F5F5F5F5F5F5F5F5F5F5F5F5F5F5F5F5F5F5F5F5F5F5F5F5F5F5F5F5F5F5F5F5F5F5F5F5F5F5F5F5F5F5F5F5
310
F5F5F5F5F5F5F5F5F5F5F5F5F5F5F5F5F5F5F5F5F5F5F5F5F5F5F5F5F5F5F5F5F5F5F5F5F5F5F5F5F5F5F5F5F5F5F5F5F5F5F5F5F5F5F5F5F5F5F5F5F5F5F5F5F5F5F5F5F5F5F5F5F5F5F5F5F5F5F5F5F5F5F5F5F5F5E2E2F5E2EFE2F5E2E2F5F5F5F5F5F5F5F5F5F5F5F5F5F5F5F5F5F5F5F5F5F5F5F5F5F5F5F5F5F5F5F5
310
F5F5F5F5F5F5F5F5F5F5F5F5F5F5F5F5F5F5F5F5F5F5F5F5F5F5F5F5F5F5F5F5F5F5F5F5F5F5F5F5F5F5F5F5F5F5F5F5F5F5F5F5F5F5F5F5F5F5F5F5F5F5F5F5F5F5F5F5F5F5F5F5F5F5F5F5F5F5F5F5F5F5F5F5F5F5F5F5F5F5F5F5F5F5F5F5F5F5F5F5F5F5F5F5F5F5F5F5F5F5F5F5F5F5F5F5F5F5F5F5F5F5F5F5F5F5F5
310
F5F5F5F5F5F5F5F5F5F5F5F5E2E2F5E2EFE2F5E2E2F5F5F5F5F5F5F5F5F5F5F5F5F5F5F5F5F5F5F5F5F5F5F5F5F5F5F5F5F5F5F5F5F5F5F5F5F5F5F5F5F5F5F5F5F5F5F5F5F5F5F5F5F5F5F5F5F5F5F5F5F5F5F5F5F5F5F5F5F5F5F5F5F5F5F5F5F5F5F5F5F5F5F5F5F5F5F5F5F5F5F5F5F5F5F5F5F5F5F5F5F5F5F5F5F5F5
310
F5F5F5F5F5F5F5F5F5F5F5F5F5F5F5F5F5F5F5F5F5F5F5F5F5F5F5F5F5F5F5F5F5F5F5F5F5F5F5F5F5F5F5F5F5F5F5F5F5F5F5F5F5F5F5F5F5F5F5F5F5F5F5F5F5E2E2F5E2EFE2F5F5E2F5F5F5F5F5F5F5F5F5F5F5F5F5F5F5F5F5F5F5F5F5F5F5F5F5F5F5F5F5F5F5F5F5F5F5F5F5F5F5F5F5F5F5F5F5F5F5F5F5F5F5F5F5
310
F5F5F5F5F5F5F5F5F5F5F5F5F5F5F5F5F5F5F5F5F5F5F5F5F5F5F5F5F5F5F5F5F5F5F5F5F5F5F5F5F5F5F5F5F5F5F5F5F5F5F5F5F5F5F5F5F5F5F5F5F5F5F5F5F5F5F5F5F5F5F5F5F5F5F5F5F5F5F5F5F5F5F5F5F5F5F5F5F5F5F5F5F5F5F5F5F5F5F5F5F5F5F5F5F5F5F5F5F5F5F5F5F5F5F5F5F5F5E2F5F5E2EFE2F5F5E2
310
F5F5F5F5F5F5F5F5F5F5F5F5F5F5F5F5F5F5F5F5F5F5F5F5F5F5F5F5F5F5F5F5F5F5F5F5F5F5F5F5F5F5F5F5F5F5F5F5F5F5F5F5F5F5F5F5F5F5F5F5F5F5F5F5F5F5F5F5F5F5F5F5F5F5F5F5F5F5F5F5F5F5F5F5F5F5F5F5F5F5F5F5F5F5F5F5F5F5F5F5F5F5F5F5F5F5F5F5F5F5F5F5F5F5F5F5F5F5F5F5F5F5F5F5F5F5F5
310
F5F5F5F5F5F5F5F5F5F5F5F5F5F5F5F5F5F5F5F5F5F5F5F5F5F5F5F5F5F5F5F5F5F5F5F5F5F5F5F5F5F5F5F5E2F5F5E2EFE2F5F5E2F5F5F5F5F5F5F5F5F5F5BEF5F5F5BEF5F5F5F5F5F5F5F5F5F5F5F5F5F5F5F5F5F5F5F5F5F5F5F5F5F5F5F5F5F5F5F5F5F5F5F5F5F5F5F5F5F5F5F5F5F5F5F5F5BEF5F5F5F5F5F5F5F5F5
310
F5F5F5F5F5F5F5F5F5F5F5F5F5F5F5F5F5F5F5F5F5F5F5F5F5F5F5BEF5F5BEF5F5F5F5F5F5F5F5F5F5F5F5F5F5F5F5F5F5F5F5F5F5F5F5F5F5F5F5F5F5F5F5F5F5F5F5F5F5F5F5F5F5F5F5F5F5F5F5F5F5F5F5F5F5F5F5F5F5F5F5F5F5F5F5F5F5E2F5F5E2EFE2F5F5E2F5F5F5F5F5F5F5F5F5BEBEBEBEBEBEBEF5F5F5F5F5
310
F5F5F50F0F0F0F0F0F0F0F0F0F0F0F0F0F0F0F0F0F0F0F0F0F0F0F0F0F0F0F0FF5F5F5F5F5BEBEBEBEBEBEBEF5F5F5F5F5F5F5F5F5F5F5F5F5F5F5F5F5F5F5F5F5F5F5F5F5F5F5F5F5F5F5F5F5F5BEBEBEBEBEBEBEF5F5F5F5F5F5F5F50F0F0F0F0F0F0F0F0F0F0F0F0F0F0F0F0F0F0F0F0F0F0F0F0F0F0F0F0F0F0F0F0F0F
310
F5F5F5F5F5F5F5F5F5F5F5F5F5F5F5F5F5F5F5F5F5F5F5E2F5F5E2EFE2F5F5E2F5F5F5F5F5F5F5F5F5BEBEF5BEBEF5F5F5F5F5F5F5F5F5F50FF50FF5F50F0FF50FF50FF5F50FF50FF5F5F50F0FF50F0FF5F5F50F0FF5F5F5F5F5F5F5F5F5BEBEF5F5F5F5F5F5F5F5F5F5F5F5F5F5F5F5F5F5F5F5F5F5F5F5F5F5F5F5F5F5F5
310
F5F5F5F5BEBEF5BEBEF5F5F5F5F5F5F5F5F5F50FF50FF50FF50FF50FF50FF5F50FF50FF5F5F50F0FF5F50FF50FF5F5F50FF50FF50FF5F5F5F5F5F5F5F5F5F5F5F5F5F5F5F5F5F5F5F5F5F5F5E2F5F5E2EFE2F5F5E2F5F5F5F5F5F5F5F5F5F5BEF5F5BEF5F5F5F5F5F5F5F5F5F50F0FF50FF5F50F0FF50FF5F50FF50FF5F5F5
310
0F0F0FF5F50F0FF5F50F0FF5F5F5F5F5F5F5F5F5F5BEF5F5F5F5F5F5F5F5F5F5F5F5F5F5F5F5F5F5F5F5F5F5F5F5F5F5F5F5F5F5F5F5F5F5F5F5BEF5F5BEF5F5F5F5F5F5F5F5F5F50FF5F50FF50F0F0FF50FF5F50FF50FF5F5F50F0F0F0FF5F50FF50FF5F5F50FF50F0FF5F5F5F5F5F5F5F5F5F5F5F5F5F5F5F5F5F5F5F5F5
310
F5F5E2F5F5E2EFE2F5F5E2F5F5F5F5F5F5F5F5F5F5BEF5F5BEF5F5F5F5F5F5F5F5F5F50FF50FF50FF50FF50FF5F50FF50FF5F5F50F0FF50FF5F5F50F0FF5F50FF5F5F5F5F5F5F5F5F5F5BEF5F5F5F5F5F5F5F5F5F5F5F5F5F5F5F5F5F5F5F5F5F5F5F5F5F5F5F5F5F5F5F5F5F5F5F5BEF5F5BEF5F5F5F5F5F5F5F5F5F50FF5
310
F5F50FF50FF50FF5F50FF50FF5F5F50F0FF50FF50FF5F50FF50FF5F50FF50F0FF5F5F5F5F5F5F5F5F5F5F5F5F5F5F5F5F5F5F5F5F5F5F5E2F5F5E2EFE2F5F5E2F5F5F5F5F5F5F5F5F5F5BEF5F5BEF5F5F5F5F5F5F5F5F5F50FF5F50FF50F0F0FF5F50FF50FF5F5F50F0FF5F50F0FF5F5F50F0FF50FF5F5F5F5F5F5F5F5F5F5
310
BEF5F5F5F5F5F5F5F5F5F5F5F5F5F5F5F5F5F5F5F5F5F5F5F5F5F5F5F5F5F5F5F5F5F5F5F5BEF5F5BEF5F5F5F5F5F5F5F5F5F50F0FF5F5F50F0F0FF5F50FF50FF5F5F50F0FF5F50F0FF50FF5F50FF50FF5F50FF50FF5F5F5F5F5F5F5F5F5F5F5F5F5F5F5F5F5F5F5F5F5F5F5E2F5F5E2EFE2F5F5E2F5F5F5F5F5F5F5F5F5F5
310
BEF5F5BEF5F5F5F5F5F5F5F5F5F50F0FF5F50FF50FF5F5F50F0FF5F5F50F0FF5F5F50FF50FF5F50FF50F0FF5F5F5F5F5F5F5F5F5F5BEF5F5F5F5F5F5F5F5F5F5F5F5F5F5F5F5F5F5F5F5F5F5F5F5F5F5F5F5F5F5F5F5F5F5F5F5BEF5F5BEF5F5F5F5F5F5F5F5F5F50F0F0FF5F5F50FF5F5F50F0FF5F5F50F0FF5F5F50FF50F
310
F50FF5F50FF50FF5F50F0FF5F5F5F5F5F5F5F5F5F5F5F5F5F5F5F5F5F5F5F5F5F5F5E2F5F5E2EFE2F5E2E2F5F5F5F5F5F5F5F5F5F5BEF5F5BEF5F5F5F5F5F5F5F5F5F50FF50FF5F50F0FF5F50F0FF5F5F50F0FF5F5F50F0F0FF50FF5F50FF50FF5F5F5F5F5F5F5F5F5F5BEF5F5F5F5F5F5F5F5F5F5F5F5F5F5F5F5F5F5F5F5
310
F5F5F5F5F5F5F5F5F5F5F5F5F5F5F5F5BEF5F5BEF5F5F5F5F5F5F5F5F5F50FF50F0FF5F50FF5F50F0FF5F5F50F0FF5F5F50F0FF5F50FF50FF5F50FF50FF5F50FF5F5F5F5F5F5F5F5F5F5F5F5F5F5F5F5F5F5F5F5F5F5F5E2E2F5E2EFE2F5E2E2F5F5F5F5F5F5F5F5F5F5BEF5F5BEF5F5F5F5F5F5F5F5F5F50F0FF50FF5F50F
310
F50F0FF5F5F50FF50FF5F50FF50FF50FF50FF5F50F0FF5F5F5F5F5F5F5F5F5F5BEF5F5F5F5F5F5F5F5F5F5F5F5F5F5F5F5F5F5F5F5F5F5F5F5F5F5F5F5F5F5F5F5F5F5F5F5BEF5F5BEF5F5F5F5F5F5F5F5F5F50FF5F50F0FF50FF50F0FF5F5F50FF50FF5F50FF50FF5F5F50FF50FF5F50FF50FF50FF5F5F5F5F5F5F5F5F5F5
310
F5F5F5F5F5F5F5F5F5F5F5F5F5E2E2F5E2EFE2F5E2E2F5F5F5F5F5F5F5F5F5F5BEBEBEBEF5F5F5F5F5F5F5F5F5F50FF50FF50FF50F0F0FF5F5F50FF50FF5F50FF50F0FF5F50FF50FF5F50FF5F5F5F5F5F5F5F5BEBEBEF5F5F5F5F5F5F5F5F5F5F5F5F5F5F5F5F5F5F5F5F5F5F5F5F5F5F5F5F5F5F5F5F5F5F5F5BEBEBEBEF5
310
F5F5F5F5F5F5F5F5F50FF5F50FF50F0F0F0FF5F5F50FF50FF5F50FF50F0F0FF5F5F50F0FF5F5F50FF50F0FF5F5F5F5F5F5F5F5F5F5F5F5F5F5F5F5F5F5F5F5F5F5F5E2E2F5E2EFE2F5E2E2F5F5F5F5F5F5F5F5F5F5BEBEBEBEF5F5F5F5F5F5F5F5F5F50FF5F50FF50F0F0FF5F5F50FF50FF5F50FF50FF50F0FF5F50FF50FF5
310
0FF5F5F5F5F5F5F5F5BEBEBEF5F5F5F5F5F5F5F5F5F5F5F5F5F5F5F5F5F5F5F5F5F5F5F5F5F5F5F5F5F5F5F5F5F5F5F5BEBEBEBEF5F5F5F5F5F5F5F5F5F50F0FF5F50FF50F0FF5F5F50FF50FF5F50FF50FF50FF50FF5F5F50F0FF5F5F50FF50FF5F5F5F5F5F5F5F5F5F5F5F5F5F5F5F5F5F5F5F5F5F5F5E2E2F5E2EFE2F5E2
310
E2F5F5F5F5F5F5F5F5BEBEBEBEBEBEF5F5F5F5F5F5F5F5F5F50FF5F5F50FF50FF5F5F50FF50FF5F50FF50FF5F50FF50FF5F50FF50F0FF5F5F5F5F5F5F5F5BEBEBEF5F5F5F5F5F5F5F5F5F5F5F5F5F5F5F5F5F5F5F5F5F5F5F5F5F5F5F5F5F5F5F5F5F5BEBEBEBEBEBEF5F5F5F5F5F5F5F5F5F50FF50FF5F50F0FF5F5F50FF5
310
0FF5F50FF50FF5F50F0FF50FF5F50FF50FF5F5F50F0FF5F5F5F5F5F5F5F5F5F5F5F5F5F5F5F5F5F5F5F5F5F5F5E2E2F5E2EFE2F5E2E2F5F5F5F5F5F5F5F5BEBEBEF5F5BEF5F5F5F5F5F5F5F5F5F50F0FF5F5F50F0FF5F50FF50FF5F50FF50FF5F50F0F0FF50FF5F50FF50FF5F5F5F5F5F5F5F5F5F5BEF5F5F5F5F5F5F5F5F5
310
F5F5F5F5F5F5F5F5F5F5F5F5F5F5F5F5F5F5F5F5F5F5F5F5F5BEBEBEF5F5BEF5F5F5F5F5F5F5F5F5F50F0FF50FF5F50FF5F50FF50FF5F50FF50FF5F50F0FF50FF50FF5F50FF50FF5F5F50FF5F5F5F5F5F5F5F5F5F5F5F5F5F5F5F5F5F5F5F5F5F5F5E2E2F5E2EFE2F5E2E2F5F5F5F5F5F5F5F5F5F5BEF5F5BEF5F5F5F5F5F5
310
F5F5F5F50F0F0FF5F5F50FF50FF50FF5F50FF50FF5F50FF50FF50FF50FF5F50F0FF5F5F5F5F5F5F5F5F5F5BEF5F5F5F5F5F5F5F5F5F5F5F5F5F5F5F5F5F5F5F5F5F5F5F5F5F5F5F5F5F5F5F5F5F5F5F5BEF5F5BEF5F5F5F5F5F5F5F5F5F50FF50FF50FF50FF50FF50FF5F50FF50FF5F50FF50FF5F50FF50FF5F50FF50FF5F5
310
0FF5F5F5F5F5F5F5F5F5F5F5F5F5F5F5F5F5F5F5F5F5F5F5E2E2F5E2EFE2F5E2E2F5F5F5F5F5F5F5F5F5F5BEF5F5BEF5F5F5F5F5F5F5F5F5F50FF50F0FF5F50F0F0F0FF5F5BEF50FF5F50FF50F0FF5F50F0FF5F5F50FF5F5F5F5F5F5F5F5F5F5BEF5F5F5F5F5F5F5F5F5F5F5F5F5F5F5F5F5F5F5F5F5F5F5F5F5F5F5F5F5F5
310
F5F5F5F5F5F5BEF5F5BEF5F5F5F5F5F5F5F5F5F50FF5F50FF50F0F0F0F0FF5F5BEF50FF5F50FF50F0F0FF5F50FF50FF5F50FF50FF50FF5F5F5F5F5F5F5F5F5F5F5F5F5F5F5F5F5F5F5F5F5F5F5E2E2F5E2EFE2F5E2E2F5F5F5F5F5F5F5F5F5F5BEF5F5BEF5F5F5F5F5F5F5F5F5F50FF5F50F0FF50F0FF5BEBEBEBEF5BEBEBE
310
F50FF50FF5F5F50F0FF5F50FF5F5F5F5F5F5F5F5F5F5BEF5F5F5F5F5F5F5F5F5F5F5F5F5F5F5F5F5F5F5F5F5F5F5F5F5F5F5F5F5F5F5F5F5F5F5F5BEF5F5BEF5F5F5F5F5F5F5F5F5F50F0FF5F50FF50F0FF5BEF5BEBEF5BEBEBEF50FF50FF50FF5F50FF50FF5F50FF50F0FF5F5F5F5F5F5F5F5F5F5F5F5F5F5F5F5F5F5F5F5
310
F5F5F5E2E2F5E2EFE2F5E2E2F5F5F5F5F5F5F5F5F5F5BEF5F5BEF5F5BEF5F5F5F5F5F5BE0FF5F50FF50F0F0FF5BEBEBEF5BEBEBEBE0FF5F50F0FF5F5F50F0FF5BEF5F5F5F5BEF5F5F5F5F5BEF5F5F5F5F5F5F5F5F5F5F5F5F5F5F5F5F5F5F5F5F5F5F5F5F5F5F5F5F5F5F5F5F5F5F5F5BEF5F5BEF5F5BEF5F5F5F5F5F5BE0F
310
F50FF5F50F0F0FF5BEBEBEF5BEBEBEBE0FF5F50F0FF50FF5F50FF50FF5F50FF50FF5F5F5F5F5F5F5F5F5F5F5F5F5F5F5F5F5F5F5F5F5F5F5E2E2F5E2EFE2F5E2E2F5F5F5F5F5F5F5F5F5F5BEF5F5BEF5F5BEBEBEBEBEBEBEBEBE0FF5F50FF50FF5F5F5BEBEF5BEBEBEBEF5F5F50FF50FF5F5F50F0FBEBEBEBEBEBEBEF5F5F5
310
F5BEF5F5F5F5F5F5F5F5F5F5F5F5F5F5F5F5F5F5F5F5F5F5F5F5F5F5F5F5F5F5F5F5F5F5F5F5BEF5F5BEF5F5F5BEBEBEBEBEBEBEBE0FF50FF5F50FF5F5F5BEBEF5BEBEBEBEF5F5F50FF50FF50FF5F50FF50FF5F50F0FF5F5F5F5F5F5F5F5F5F5F5F5F5F5F5F5F5F5F5F5F5F5F5E2E2F5E2EFE2F5E2E2F5F5F5F5F5F5F5F5F5
310
F5BEF5F5BEBEF5BEBEF5BEBEBEF5F5BEF50FF5F50F0FF50FBEBEBEF5BEBEBEBEF5F50F0F0FF50FF5F50FF5BEBEF5BEF5BEBEF5F5F5F5BEBEF5F5F5F5F5F5F5F5F5F5F5F5F5F5F5F5F5F5F5F5F5F5F5F5F5F5F5F5F5F5F5F5F5F5F5BEF5F5BEBEF5F5BEF5F5BEBEF5F5BEBE0FF50FF50FF50FBEBEBEF5BEBEBEBEF5F50F0FF5
310
F50FF50FF5F50FF50FF5F50FF5F5F5F5F5F5F5F5F5F5F5F5F5F5F5F5F5F5F5F5F5F5F5E2E2F5E2EFE2F5E2E2F5F5F5F5F5F5F5F5F5F5BEF5BEBEBEBEF50F0FBEBEBEF5F50F0FF50FF5F50F0FF50FF5F5F50FF50FF5F50FF50FF50FF50FF5F50F0F0F0FBE0FBEF5BEBEBEBEBEBEF5F5F5F5F5F5F5F5F5F5F5F5F5F5F5F5F5F5
310
F5F5F5F5F5F5F5F5F5F5F5F5F5F5F5F5F5BEF5BEBEBEBEF5F50FBEBEBEF5F50FF5F50FF50F0F0FF50FF5F5F50FF50FF5F50FF50FF5F5F50FF50FF5F50FF50FF50FF5F5F5F5F5F5F5F5F5F5F5F5F5F5F5F5F5F5F5F5F5F5F5E2E2F5E2EFE2F5E2E2F5F5F5F5F5F5F5F5F5F5BEF5BEF5F5F5F50FF5F50F0F0FF50FF50FF50FF5
310
0FF50FF5F5F50FF50FF5F50FF50F0FF5F50FF50FF5F50FF5F50FF5BEF5F5F5F5BEF5F5F5F5F5F5F5F5F5F5F5F5F5F5F5F5F5F5F5F5F5F5F5F5F5F5F5F5F5F5F5F5F5F5F5F5F5BEF5BEF5F5F5F50FF50FF50F0FF50FF5F5F50FF50FF50FF5F5F50FF50FF5F50FF50F0F0FF5F5F50FF50FF5F50FF50F0FF5F5F5F5F5F5F5F5F5
310
F5F5F5F5F5F5F5F5F5F5F5F5F5F5E2E2F5E2EFE2F5E2E2F5F5F5F5F5F5F5F5F5F5BEF5F5F5F5F50FF50FF5F50F0FF50FF5F50FF50F0F0FF5F5F50FF50FF5F50FF50FF50F0FF5F50FF50FF5F50FF5F50F0FF5F5F5F5F5F5F5F5F5F5F5F5F5F5F5F5F5F5F5F5F5F5F5F5F5F5F5F5F5F5F5F5F5F5F5F5F5F5F5F5F5F5BEBEF5F5
310
F5F5F50F0FF50FF50FF50F0FF5F5F50F0F0FF5F5F50FF50FF5F50FF50FF50FF50FF5F5F50FF50FF5F50FF50FF5F5F5F5F5F5F5F5F5F5F5F5F5F5F5F5F5F5F5F5F5F5F5E2E2F5E2EFE2F5E2E2F5F5F5F5F5F5F5F5F5BEBEBEBEBEBEBE0FF5F50FF5F50F0F0F0FF5F50FF50FF5F5F50FF50FF5F50FF50FF5F50FF50FF5F50FF5
310
0FF5F50FF50F0FF5F5F5F5F5F5F5F5F5F5F5F5F5F5F5F5F5F5F5F5F5F5F5F5F5F5F5F5F5F5F5F5F5F5F5F5F5F5F5F5F5BEBEBEBEBEBEBEF50FF50FF50F0F0F0FF50FF5F5F50FF5F5F50FF50FF5F50FF50FF5F50F0FF50FF5F5F50FF50FF5F50F0FF5F5F5F5F5F5F5F5F5F5F5F5F5F5F5F5F5F5F5F5F5F5F5E2E2F5E2EFE2F5
310
F5E2F5F5F5F5F5F5F5F5F5BEF5F5F5F5F5F50F0FF5F50FF5F50FF5F50FF5F50F0FF5F50FF50FF5F50FF50FF5F50F0F0FF50FF5F50FF50FF5F50FF50FF5F5F5F5F5F5F5F5F5F5F5F5F5F5F5F5F5F5F5F5F5F5F5F5F5F5F5F5F5F5F5F5F5F5F5F5F5F5F5F5F5BEF5F5F5F5F5F5F50FF5F50FF50FF5F50FF50FF5F50FF5F50FF5
310
0FF5F50FF50FF5F50F0FF50FF50FF5F5F50FF50FF5F50FF5F5F5F5F5F5F5F5F5F5F5F5F5F5F5F5F5F5F5F5F5F5F5E2F5F5E2EFE2F5F5E2F5F5F5F5F5F5F5F5F5F5F5F5F5F5F5F50FF50FF5F50FF5F50FF5F50FF5F50FF50FF50FF5F50FF50FF5F50FF50FF50FF50FF5F50FF50FF5F50F0FF5F5F5F5F5F5F5F5F5F5F5F5F5F5
310
F5F5F5F5F5F5F5F5F5F5F5F5F5F5F5F5F5F5F5F5F5F5F5F5F5F5F5F5F5F5F5F5F5F5F50F0FF5F50FF50FF5F50FF50FF50FF50FF50FF5F50FF50FF5F50FF50FF5F50FF50FF5F5F50FF50FF50FF5F5F5F5F5F5F5F5F5F5F5F5F5F5F5F5F5F5F5F5F5F5F5E2F5F5E2EFE2F5F5E2F5F5F5F5F5F5F5F5F5F5F5F5F5F5F5F50FF5F5
310
0FF5F50FF5F50FF5F50FF50F0FF50FF5F50FF50FF5F50FF50F0FF5F50FF50FF5F50FF50FF5F50FF5F5F5F5F5F5F5F5F5F5F5F5F5F5F5F5F5F5F5F5F5F5F5F5F5F5F5F5F5F5F5F5F5F5F5F5F5F5F5F5F5F5F5F5F5F5F5F5F50FF50FF5F50F0FF5F5F50FF50F0F0FF50FF5F50FF50FF5F50FF50F0F0FF5F50FF50FF5F5F50FF5
310
0F0FF5F5F5F5F5F5F5F5F5F5F5F5F5F5F5F5F5F5F5F5F5F5F5E2F5F5E2EFE2F5F5E2F5F5F5F5F5F5F5F5F5F5F5F5F5F5F5F50F0FF5F50F0FF50FF5F50F0FF50F0FF50FF5F50FF50FF5F50FF50FF50FF5F5F50FF50FF5F50FF50FF50FF5F5F5F5F5F5F5F5F5F5F5F5F5F5F5F5F5F5F5F5F5F5F5F5F5F5F5F5F5F5F5F5F5F5F5
310
F5F5F5F5F5F5F5F5F5F5F5F5F5F50F0FF50FF5F50F0FF5F5F50FF50FF50FF5F50FF50FF5F50FF50FF50FF50FF5F50F0F0FF5F5F50FF50FF5F5F5F5F5F5F5F5F5F5F5F5F5F5F5F5F5F5F5F5F5F5F5E2F5F5E2EFE2F5F5E2F5F5F5F5F5F5F5F5F5F5F5F5F5F5F5F50FF50FF5F5F50FF50FF5F5F50FF50F0FF5F50FF50FF5F50F
310
F50FF5F50F0FF5F5F50FF50FF5F50FF50F0FF5F5F5F5F5F5F5F5F5F5F5F5F5F5F5F5F5F5F5F5F5F5F5F5F5F5F5F5F5F5F5F5F5F5F5F5F5F5F5F5F5F5F5F5F5F5F5F5F50FF50F0FF5F5F50F0FF5F5F50F0F0FF5F50FF50FF5F50FF50FF5F50F0FF50FF5F5F50F0FF5F5F50F0FF5F5F5F5F5F5F5F5F5F5F5F5F5F5F5F5F5F5F5
310
F5F5F5F5E2F5F5E2EFE2F5F5E2F5F5F5F5F5F5F5F5F5F5F5F5F5F5F5F50F0FF50FF5F5F50FF50FF5F5F50F0FF5F50FF50FF5F50FF50FF5F5F50FF50FF5F5F50FF50FF5F50FF50FF5F5F5F5F5F5F5F5F5F5F5F5F5F5F5F5F5F5F5F5F5F5F5F5F5F5F5F5F5F5F5F5F5F5F5F5F5F5F5F5F5F5F5F5F5F5F5F5F50FF50FF50FF5F5
310
F50F0FF5F5F50FF5F50FF50FF5F50FF50FF5F5F50FF50FF50FF5F5F50F0FF5F5F50FF5F5F5F5F5F5F5F5F5F5F5F5F5F5F5F5F5F5F5F5F5F5F5E2F5F5E2EFE2F5F5E2F5F5F5F5F5F5F5F5F5F5F5F5F5F5F5F50FF50FF50FF5F5F50FF50FF5F5F50FF50FF50FF5F50FF50FF5F5F50F0F0FF50FF5F5F50FF50FF5F50F0FF5F5F5
310
F5F5F5F5F5F5F5F5F5F5F5F5F5F5F5F5F5F5F5F5F5F5F5F5F5F5F5F5F5F5F5F5F5F5F5F5F5F5F5F5F5F5F5F5F5F50FF5F50FF50FF5F5F50F0FF5F50FF50FF50FF5F50FF50FF5F5F50F0FF5F50FF50FF5F5F50F0FF5F50FF5F5F5F5F5F5F5F5F5F5F5F5F5F5F5F5F5F5F5F5F5F5F5E2F5F5E2EFE2F5F5E2F5F5F5F5F5F5F5F5
310
F5F5F5F5F5F5F5F50FF5F50FF50FF5F5F50FF50FF5F50F0FF50FF5F50FF50FF5F5F50FF50FF50FF50FF5F5F50FF50FF5F50FF5F5F5F5F5F5F5F5F5F5F5F5F5F5F5F5F5F5F5F5F5F5F5F5F5F5F5F5F5F5F5F5F5F5F5F5F5F5F5F5F5F5F5F5F5F5F5F5F50F0FF5F50FF50FF5F5F50F0FF50F0FF50FF5F50FF50FF5F5F50FF50F
310
0FF5F50FF50FF5F5F50F0FF50FF5F5F5F5F5F5F5F5F5F5F5F5F5F5F5F5F5F5F5F5F5F5F5E2F5F5E2EFE2F5E2E2F5F5F5F5F5F5F5F5F5F5F5F5F5F5F5F5F5F5F5F5F5F5F5F5F5F5F5F5F5F5F5F5F5F5F5F5F5F5F5F5F5F5F5F5F5F5F5F5F5F5F5F5F5F5F5F5F5F5F5F5F5F5F5F5F5F5F5F5F5F5F5F5F5F5F5F5F5F5F5F5F5F5
310
F5F5F5F5F5F5F5F5F5F5F5F5F5F5F5F5F5F5F5F5F5F5F5F5F5F5F5F5F5F5F5F5F5F5F5F5F5F5F5F5F5F5F5F5F5F5F5F5F5F5F5F5F5F5F5F5F5F5F5F5F5F5F5F5F5F5F5F5F5F5F5F5F5F5F5F5F5F5F5F5F5F5F5F5F5F5F5F5F5E2E2F5E2EFE2F5E2E2F5F5F5F5F5F5F5F5F5F5F5F5F5F5F5F5F5F5F5F5F5F5F5F5F5F5F5F5F5
310
F5F5F5F5F5F5F5F5F5F5F5F5F5F5F5F5F5F5F5F5F5F5F5F5F5F5F5F5F5F5F5F5F5F5F5F5F5F5F5F5F5F5F5F5F5F5F5F5F5F5F5F5F5F5F5F5F5F5F5F5F5F5F5F5F5F5F5F5F5F5F5F5F5F5F5F5F5F5F5F5F5F5F5F5F5F5F5F5F5F5F5F5F5F5F5F5F5F5F5F5F5F5F5F5F5F5F5F5F5F5F5F5F5F5F5F5F5F5F5F5F5F5F5F5F5F5F5
310
F5F5F5F5F5F5F5F5F5F5F5F5F5F5F5E2E2F5E2EFE2F5E2E2F5F5F5F5F5F5F5F5F5F5F5F5F5F5F5F5F5F5F5F5F5F5F5F5F5F5F5F5F5F5F5F5F5F5F5E2E2F5F5F5F5F5F5F5F5F5F5F5F5F5F5F5F5F5F5F5F5F5F5F5F5F5F5F5F5F5F5F5F5F5F5F5F5F5F5F5F5F5F5F5F5F5F5F5F5F5F5F5F5F5F5F5F5F5F5F5F5F5F5F5F5F5F5
310
F5F5F5F5F5F5F5F5F5F5F5F5F5F5F5F5F5F5F5F5F5F5F5F5F5F5F5F5F5F5F5F5F5F5F5F5E2E2F5F5F5F5F5F5F5F5F5F5F5F5F5F5F5F5F5F5F5F5F5F5F5F5F5F5F5F5F5F5E2E2F5E2EFE2F5E2E2F5F5F5F5F5F5F5F5F5E2E2E2E2F5F5E2E2E2F5F5F5F5F5F5E2F5E2E2E2E2E2E2E2E2E2E2E2F5F5E2E2E2E2E2E2E2E2F5F5E2
310
E2E2E2E2E2F5F5E2E2E2E2E2E2E2E2E2F5F5F5F5F5F5F5F5F5F5F5F5F5F5F5F5F5F5F5F5F5F5F5F5F5F5F5F5F5F5F5F5F5F5F5F5E2E2E2E2E2F5E2E2E2F5F5F5F5F5F5E2F5E2E2E2E2E2E2E2E2E2F5E2E2F5E2E2E2E2E2E2E2E2E2F5F5E2E2E2E2E2E2E2E2E2E2F5F5F5F5F5F5F5F5F5F5F5F5F5F5F5F5F5F5E2E2F5E2EFE2
310
F5E2E2F5F5F5F5F5F5F5F5F5E2E2E2E2F5F5F5E2F5F5E2E2E2F5F5E2E2E2E2E2E2E2E2E2E2E2E2E2F5F5E2E2E2E2E2E2E2E2F5F5E2E2E2E2E2E2F5F5E2E2E2E2E2E2E2E2E2F5F5F5F5F5F5F5F5F5F5F5F5F5F5F5F5F5F5F5F5F5F5F5F5F5F5F5F5F5F5F5F5F5F5F5F5F5E2E2E2E2F5E2F5E2F5F5E2E2F5F5E2E2E2E2E2E2E2
310
E2E2E2E2E2E2E2F5E2E2E2E2E2E2E2E2E2F5F5E2E2E2E2E2E2E2E2E2E2F5F5F5F5F5F5F5F5F5F5F5F5F5F5F5F5F5F5E2E2F5E2EFE2F5E2E2F5F5F5F5F5F5F5F5F5E2E2E2E2F5F5E2E2F5F5F5F5F5F5F5E2F5E2E2E2E2E2E2E2E2F5E2E2F5E2E2E2E2E2F5E2E2E2F5F5E2E2E2E2E2E2F5F5E2E2E2E2E2E2E2E2E2F5F5F5F5F5
310
F5F5F5F5F5F5F5F5F5F5F5F5F5F5F5F5F5F5F5F5F5F5F5F5F5F5F5F5F5F5F5E2E2E2E2E2F5F5E2E2F5F5F5F5F5F5F5E2E2E2E2E2E2E2E2E2E2E2E2E2E2E2E2E2E2E2E2E2E2E2F5F5E2E2E2E2E2E2E2E2E2E2F5F5F5F5F5F5F5F5F5F5F5F5F5F5F5F5F5F5E2E2F5E2EFE2F5E2E2F5F5F5F5F5F5F5F5F5E2E2E2E2F5F5F5E2F5
310
F5F5F5F5F5F5E2E2F5E2E2F5F5F5F5F5F5F5F5F5F5E2F5F5F5F5F5F5F5F5F5F5F5F5F5F5E2F5F5F5F5F5F5E2F5F5F5F5F5F5F5F5F5F5F5F5F5F5F5F5F5F5F5F5F5F5F5F5F5F5F5F5F5F5F5F5F5F5F5F5F5F5F5F5E2E2E2E2E2F5F5E2E2F5F5F5F5F5F5F5E2E2F5F5E2F5F5F5F5E2F5E2E2F5E2E2F5F5F5F5F5F5F5F5F5F5F5
310
F5F5E2E2F5F5F5F5F5F5F5F5F5F5F5F5F5F5F5F5F5F5F5F5F5F5E2E2F5E2EFE2F5E2E2F5F5F5F5F5F5F5F5F5F5F5F5F5F5F5F5F5F5F5F5F5F5F5F5F5F5F5F5F5F5F5F5F5F5F5F5F5F5F5F5F5F5F5F5F5F5F5F5F5F5F5F5F5F5F5F5F5F5F5F5F5F5F5F5F5F5F5F5F5F5F5F5F5F5F5F5F5F5F5F5F5F5F5F5F5F5F5F5F5F5F5F5
310
F5F5F5F5F5F5F5F5F5F5F5F5F5F5F5F5F5F5F5F5F5F5F5F5F5F5F5F5F5F5F5F5F5F5F5F5F5F5F5F5F5F5F5F5F5F5F5F5F5F5F5F5F5F5F5F5F5F5F5F5F5F5F5F5F5F5F5F5F5F5F5F5F5F5F5F5F5F5F5E2E2F5E2EFE2F5E2E2F5F5F5F5F5F5F5F5F5F5F5F5F5F5F5F5F5F5F5F5F5F5F5F5F5F5F5F5F5F5F5F5F5F5F5F5F5F5F5
310
F5F5F5F5F5F5F5F5F5F5F5F5F5F5F5F5F5F5F5F5F5F5F5F5F5F5F5F5F5F5F5F5F5F5F5F5F5F5F5F5F5F5F5F5F5F5F5F5F5F5F5F5F5F5F5F5F5F5F5F5F5F5F5F5F5F5F5F5F5F5F5F5F5F5F5F5F5F5F5F5F5F5F5F5F5F5F5F5F5F5F5F5F5F5F5F5F5F5F5F5F5F5F5F5F5F5F5F5F5F5F5F5F5F5F5F5F5F5F5F5F5F5F5F5F5F5F5
310
F5F5F5F5F5E2E2F5E2EFE2F5E2E2F5F5F5F5F5F5F5F5F5F5F5F5F5F5F5F5F5F5F5F5F5F5F5F5F5F5F5F5F5F5F5F5F5F5F5F5F5F5F5F5F5F5F5F5F5F5F5F5F5F5F5F5F5F5F5F5F5F5F5F5F5F5F5F5F5F5F5F5F5F5F5F5F5F5F5F5F5F5F5F5F5F5F5F5F5F5F5F5F5F5F5F5F5F5F5F5F5F5F5F5F5F5F5F5F5F5F5F5F5F5F5F5F5
310
F5F5F5F5F5F5F5F5F5F5F5F5F5F5F5F5F5F5F5F5F5F5F5F5F5F5F5F5F5F5F5F5F5F5F5F5F5F5F5F5F5F5F5F5F5F5F5F5F5F5F5F5F5F5F5F5F5F5E2E2F5E2EFE2F5E2E2F5F5F5F5F5F5F5F5F5F5F5F5F5F5F5F5F5F5F5F5F5F5F5F5F5F5F5F5F5F5F5F5F5F5F5F5F5F5F5F5F5F5F5F5F5F5F5F5F5F5F5F5F5F5F5F5F5F5F5F5
310
F5F5F5F5F5F5F5F5F5F5F5F5F5F5F5F5F5F5F5F5F5F5F5F5F5F5F5F5F5F5F5F5F5F5F5F5F5F5F5F5F5F5F5F5F5F5F5F5F5F5F5F5F5F5F5F5F5F5F5F5F5F5F5F5F5F5F5F5F5F5F5F5F5F5F5F5F5F5F5F5F5F5F5F5F5F5F5F5F5F5F5F5F5F5F5F5F5F5F5F5F5F5F5F5F5F5F5F5F5F5F5E2E2F5E2EFE2F5E2E2F5F5F5F5F5F5F5
310
F5F5F5F5F5F5F5F5F5F5F5F5F5F5F5F5F5F5F5F5F5F5F5F5F5F5F5F5F5F5F5F5F5F5F5F5F5F5F5F5F5F5F5F5F5F5F5F5F5F5F5F5F5F5F5F5F5F5F5F5F5F5F5F5F5F5F5F5F5F5F5F5F5F5F5F5F5F5F5F5F5F5F5F5F5F5F5F5F5F5F5F5F5F5F5F5F5F5F5F5F5F5F5F5F5F5F5F5F5F5F5F5F5F5F5F5F5F5F5F5F5F5F5F5F5F5F5
310
F5F5F5F5F5F5F5F5F5F5F5F5F5F5F5F5F5F5F5F5F5F5F5F5F5F5F5F5F5F5F5F5F5F5F5F5F5E2E2F5E2EFE2F5E2E2F5F5F5F5F5F5F5F5F5F5F5F5F5F5F5F5F5F5F5F5F5F5F5F5F5F5F5F5F5F5F5F5F5F5F5F5F5F5F5F5F5F5F5F5F5F5F5F5F5F5F5F5F5F5F5F5F5F5F5F5F5F5F5F5F5F5F5F5F5F5F5F5F5F5F5F5F5F5F5F5F5
310
F5F5F5F5F5F5F5F5F5F5F5F5F5F5F5F5F5F5F5F5F5F5F5F5F5F5F5F5F5F5F5F5F5F5F5F5F5F5F5F5F5F5F5F5F5F5F5F5F5F5F5F5F5F5F5F5F5F5F5F5F5F5F5F5F5F5F5F5F5F5F5F5F5F5F5F5F5F5F5F5F5F5F5F5F5F5F5F5F5F5E2E2F5E2EFE2F5E2E2F5F5F5F5F5F5F5F5F5F5F5F5F5F5F5F5F5F5F5F5F5F5F5F5F5F5F5F5
310
F5F5F5F5F5F5F5F5F5F5F5F5F5F5F5F5F5F5F5F5F5F5F5F5F5F5F5F5F5F5F5F5F5F5F5F5F5F5F5F5F5F5F5F5F5F5F5F5F5F5F5F5F5F5F5F5F5F5F5F5F5F5F5F5F5F5F5F5F5F5F5F5F5F5F5F5F5F5F5F5F5F5F5F5F5F5F5F5F5F5F5F5F5F5F5F5F5F5F5F5F5F5F5F5F5F5F5F5F5F5F5F5F5F5F5F5F5F5F5F5F5F5F5F5F5F5F5
310
F5F5F5F5F5F5F5F5F5F5F5F5F5F5F5F5E2E2F5E2EFE2F5E2E2F5F5F5F5F5F5F5F5F5F5F5F5F5F5F5F5F5F5F5F5F5F5F5F5F5F5F5F5F5F5F5F5F5F5F5F5F5F5F5F5F5F5F5F5F5F5F5F5F5F5F5F5F5F5F5F5F5F5F5F5F5F5F5F5F5F5F5F5F5F5F5F5F5F5F5F5F5F5F5F5F5F5F5F5F5F5F5F5F5F5F5F5F5F5F5F5F5F5F5F5F5F5
310
F5F5F5F5F5F5F5F5F5F5F5F5F5F5F5F5F5F5F5F5F5F5F5F5F5F5F5F5F5F5F5F5F5F5F5F5F5F5F5F5F5F5F5F5F5F5F5F5F5F5F5F5F5F5F5F5F5F5F5F5F5F5F5F5F5F5F5F5F5E2E2F5E2EFE2F5E2E2F5F5F5F5F5F5F5F5F5F5F5F5F5F5F5F5F5F5F5F5F5F5F5F5F5F5F5F5F5F5F5F5F5F5F5F5F5F5F5F5F5F5F5F5F5F5F5F5F5
310
F5F5F5F5F5F5F5F5F5F5F5F5F5F5F5F5F5F5F5F5F5F5F5F5F5F5F5F5F5F5F5F5F5F5F5F5F5F5F5F5F5F5F5F5F5F5F5F5F5F5F5F5F5F5F5F5F5F5F5F5F5F5F5F5F5F5F5F5F5F5F5F5F5F5F5F5F5F5F5F5F5F5F5F5F5F5F5F5F5F5F5F5F5F5F5F5F5F5F5F5F5F5F5F5F5F5F5F5F5F5F5F5F5F5F5F5F5F5F5F5F5F5E2E2F5E2EF
310
E2F5F5E2F5F5F5F5F5F5F5F5F5F5F5F5F5F5F5F5F5F5F5F5F5F5F5F5F5F5F5F5F5F5F5F5F5F5F5F5F5F5F5F5F5F5F5F5F5F5F5F5F5F5F5F5F5F5F5F5F5F5F5F5F5F5F5F5F5F5F5F5F5F5F5F5F5F5F5F5F5F5F5F5F5F5F5F5F5F5F5F5F5F5F5F5F5F5F5F5F5F5F5F5F5F5F5F5F5F5F5F5F5F5F5F5F5F5F5F5F5F5F5F5F5F5F5
310
F5F5F5F5F5F5F5F5F5F5F5F5F5F5F5F5F5F5F5F5F5F5F5F5F5F5F5F5F5F5F5F5F5F5F5F5F5F5F5F5F5F5F5F5F5F5F5F5E2F5F5E2EFE2F5F5E2F5F5F5F5F5F5F5F5F5F5F5F5F5F5F5F5F5F5F5F5F5F5F5F5F5F5F5F5F5F5F5F5F5F5F5F5F5F5F5F5F5F5F5F5F5F5F5F5F5F5F5F5F5F5F5F5F5F5F5F5F5F5F5F5F5F5F5F5F5F5
310
F5F5F5F5F5F5F5F5F5F5F5F5F5F5F5F5F5F5F5F5F5F5F5F5F5F5F5F5F5F5F5F5F5F5F5F5F5F5F5F5F5F5F5F5F5F5F5F5F5F5F5F5F5F5F5F5F5F5F5F5F5F5F5F5F5F5F5F5F5F5F5F5F5F5F5F5F5F5F5F5F5F5F5F5F5F5F5F5F5F5F5F5F5F5F5F5F5F5F5F5F5E2F5F5E2EFE2F5F5E2F5F5F5F5F5F5F5F5F5F5F5F5F5F5F5F5F5
310
F5F5F5F5F5F5F5F5F5F5F5F5F5F5F5F5F5F5F5F5F5F5F5F5F5F5F5F5F5F5F5F5F5F5F5F5F5F5F5F5F5F5F5F5F5F5F5F5F5F5F5F5F5F5F5F5F5F5F5F5F5F5F5F5F5F5F5F5F5F5F5F5F5F5F5F5F5F5F5F5F5F5F5F5F5F5F5F5F5F5F5F5F5F5F5F5F5F5F5F5F5F5F5F5F5F5F5F5F5F5F5F5F5F5F5F5F5F5F5F5F5F5F5F5F5F5F5
310
F5F5F5F5F5F5F5F5F5F5F5F5F5F5F5F5F5F5F5F5F5F5F5F5F5F5F5E2F5F5E2EFE2F5F5E2F5F5F5F5F5F5F5F5F5F5F5F5F5F5F5F5F5F5F5F5F5F5F5F5F5F5F5F5F5F5F5F5F5F5F5F5F5F5F5F5F5F5F5F5F5F5F5F5F5F5F5F5F5F5F5F5F5F5F5F5F5F5F5F5F5F5F5F5F5F5F5F5F5F5F5F5F5F5F5F5F5F5F5F5F5F5F5F5F5F5F5
310
F5F5F5F5F5F5F5F5F5F5F5F5F5F5F5F5F5F5F5F5F5F5F5F5F5F5F5F5F5F5F5F5F5F5F5F5F5F5F5F5F5F5F5F5F5F5F5F5F5F5F5F5F5F5F5F5F5F5F5F5F5F5F5BEF5F5F5F5F5F5F5F5F5F5F5F5F5F5F5F5E2F5F5E2EFE2F5F5E2F5F5F5F5F5F5F5F5F5F5F5F5F5F5F5F5F50F0F0F0F0F0F0F0F0F0F0F0F0F0F0F0F0F0F0F0F0F
310
0F0F0F0F0F0F0F0F0F0F0F0F0F0F0F0F0F0F0F0FF5F5F5F5F5F5F5F5F5F5F5F5F5F5F5F5F5F5F5F5F5F5F5F5F5F5F5F5F5F5F5F5F5F5F5F5F5F5F5F5F5F5F5F5F5F5F5F5F50F0F0F0F0F0F0F0F0F0F0F0F0F0F0F0F0F0F0F0F0F0F0F0F0F0F0F0F0F0F0F0F0F0F0F0FF5F5F5F5F5F5BEBEBEBEBEBEF5F5F5F5F5F5F5F5F5F5
310
F5F5F5F5F5F5E2F5F5E2EFE2F5F5E2F5F5F5F5F5F5F5F5F5F5F5F5F5F5F5F50F0FF5F50FF50FF5F5F50FF50FF50FF50FF50FF5F50FF50FF5F5F50F0FF5F50FF50FF5F5F50FF50FF50FF5F5F5F5F5F5F5F5F5F5F5F5F5F5F5F5F5F5F5F5F5F5F5F5F5F5F5F5F5F5F5F5F5F5F5F5F5F5F5F5F5F5F5F5F5F5F5F5F50FF50FF5F5
310
0FF50FF5F50FF50F0FF50FF50FF5F50FF50FF5F5F50F0FF50FF5F50FF50F0F0FF5F5F5F5F5F5F5F5BEBEF5F5F5F5F5F5F5F5F5F5F5F5F5F5F5F5F5E2F5F5E2EFE2F5F5E2F5F5F5F5F5F5F5F5F5F5F5F5F5F5F5F50FF50FF5F50F0F0FF5F5F50F0FF50F0FF50FF5F50FF50FF5F5F50F0F0F0FF5F50FF50FF5F5F50FF50F0FF5
310
F5F5F5F5F5F5F5F5F5F5F5F5F5F5F5F5F5F5F5F5F5F5F5F5F5F5F5F5F5F5F5F5F5F5F5F5F5F5F5F5F5F5F5F5F5F5F5F50F0FF50FF5F50FF50FF5F50F0F0F0FF50FF5F50FF50FF5F5F50F0F0FF5F50FF5F50FF50F0FF5F5F5F5F5F5F5F5F5BEF5F5F5F5F5F5F5F5F5F5F5F5F5F5F5F5F5E2F5F5E2EFE2F5F5E2F5F5F5F5F5F5
310
F5F5F5F5F5F5F5F5F5F50FF5F50FF5F5F50F0FF5F50FF50F0FF50FF5F50FF50FF5F5F50F0FF50FF50FF5F50FF50FF5F50FF50F0FF5F5F5F5F5F5F5F5F5F5F5F5F5F5F5F5F5F5F5F5F5F5F5F5F5F5F5F5F5F5F5F5F5F5F5F5F5F5F5F5F5F5F5F5F5F5F5F5F50FF50FF50FF5F50FF50FF5F5F50FF50FF5F50FF50FF5F5F50F0F
310
F50F0FF5F50FF5F50FF50FF5F5F5F5F5F5F5F5F5BEF5F5F5F5F5F5F5F5F5F5F5F5F5F5F5F5F5E2F5F5E2EFE2F5F5E2F5F5F5F5F5F5F5F5F5F5F5F5F5F5F5F50F0FF5F50FF5F5F50F0FF5F50FF50F0FF5F50FF50FF5F5F50F0FF5F50F0FF50FF5F50FF50FF5F50FF50FF5F5F5F5F5F5F5F5F5F5F5F5F5F5F5F5F5F5F5F5F5F5
310
F5F5F5F5F5F5F5F5F5F5F5F5F5F5F5F5F5F5F5F5F5F5F5F5F5F5F50FF5F50FF50FF5F50FF50FF5F50F0FF5F50FF50FF5F5F50F0FF5F50FF50FF5F50FF5F50F0FF5F5F5F5F5F5F5F5F5BEF5F5F5F5F5F5F5F5F5F5F5F5F5F5F5F5F5E2F5F5E2EFE2F5E2E2F5F5F5F5F5F5F5F5F5F5F5F5F5F5F5F50FF50FF5F50FF5F5F50F0F
310
F5F50F0FF5F5F50F0FF5F5F50F0FF5F5F50FF50FF50FF5F50FF50FF5F50F0FF5F5F5F5F5F5F5F5F5F5F5F5F5F5F5F5F5F5F5F5F5F5F5F5F5F5F5F5F5F5F5F5F5F5F5F5F5F5F5F5F5F5F5F5F5F5F5F5F50FF5F5F50FF50FF5F50FF50FF50FF5F5F50F0FF5F5F50F0FF5F5F50FF5F50FF5F50FF5F50FF5F5F5F5F5F5F5F5F5BE
310
F5F5F5F5F5F5F5F5F5F5F5F5F5F5F5F5F5E2E2F5E2EFE2F5E2E2F5F5F5F5F5F5F5F5F5F5F5F5F5F5F5F50FF5F50FF5F50FF5F5F50F0FF5F50FF5F50FF50FF5F50F0FF5F5F50F0FF5F50FF50FF5F50FF50FF5F50FF5F5F5F5F5F5F5F5F5F5F5F5F5F5F5F5F5F5F5F5F5F5F5F5F5F5F5F5F5F5F5F5F5F5F5F5F5F5F5F5F5F5F5
310
F5F5F5F5F5F50F0FF5F5F50FF50FF5F50FF50F0FF5F50FF50FF5F50F0FF5F5F50F0F0FF5F50F0FF50FF50FF5F5F5F5F5F5F5F5F5BEF5F5F5F5F5F5F5F5F5F5F5F5F5F5F5F5F5E2E2F5E2EFE2F5E2E2F5F5F5F5F5F5F5F5F5F5F5F5F5F5F5F50F0FF5F50F0FF50FF5F50FF50FF50FF50FF50FF5F50FF50FF5F50FF50FF5F5F5
310
0FF50FF5F50FF50FF50FF5F5F5F5F5F5F5F5F5F5F5F5F5F5F5F5F5F5F5F5F5F5F5F5F5F5F5F5F5F5F5F5F5F5F5F5F5F5F5F5F5F5F5F5F5F5F5F5F50F0F0FF5F5F50FF50FF5F50FF50FF50FF50FF5F50FF50FF5F50FF50FF50FF5F5F50FF50F0FF5F5F5F5F5F5F5F5F5BEF5F5F5F5F5F5F5F5F5F5F5F5F5F5F5F5F5E2E2F5E2
310
EFE2F5E2E2F5F5F5F5F5F5F5F5F5F5F5F5F5F5F5F50FF50FF5F5F50FF50FF5F50FF50F0F0FF50FF5F50FF50FF5F50FF50F0F0FF5F5F50F0FF5F5F50FF50F0FF5F5F5F5F5F5F5F5F5F5F5F5F5F5F5F5F5F5F5F5F5F5F5F5F5F5F5F5F5F5F5F5F5F5F5F5F5F5F5F5F5F5F5F5F5F5F5F5F50FF50F0FF5F5F50FF50FF5F50F0F0F
310
F50FF5F50FF50FF5F50FF50F0F0FF50FF5F5F50FF50FF5F5F5F5F5F5F5BEF5BEF5F5F5F5F5F5F5F5F5F5F5F5F5F5F5F5F5E2E2F5E2EFE2F5E2E2F5F5F5F5F5F5F5F5F5F5F5F5F5F5F5F50F0FF50FF5F5F50FF50FF5F50FF50FF50FF5F50FF50FF5F50FF50FF50FF50FF5F5F50F0FF5F5F50FF50FF5F5F5F5F5F5F5F5F5F5F5
310
F5F5F5F5F5F5F5F5F5F5F5F5F5F5F5F5F5F5F5F5F5F5F5F5F5F5F5F5F5F5F5F5F5F5F5F5F5F50FF5F50F0FF5F5F50FF50FF5F50FF50FF5F50FF50FF5F50FF50FF50FF50FF50FF5F5F50F0FF5F5F5F5F5F5F5BEBEBEF5F5F5F5F5F5F5F5F5F5F5F5F5F5F5F5F5E2E2F5E2EFE2F5E2E2F5F5F5F5F5F5F5F5F5F5F5F5F5F5F5F5
310
0FF50FF50F0FF5F50FF50FF5F50F0F0FF5F50FF50FF5F50FF50FF5F50F0FF50FF5F50FF50FF5F5F50F0FF5F5F5F5F5F5F5F5F5F5F5F5F5F5F5F5F5F5F5F5F5F5F5F5F5F5F5F5F5F5F5F5F5F5F5F5F5F5F5F5F5F5F5F5F5F5F5F5F50FF5F5F50F0FF5F5F50FF50FF50F0FF5F50FF50FF5F50FF50FF5F50FF5F50FF50FF5F5F5
310
0FF5F5F5F5F5F5F5BEBEBEF5F5F5F5F5F5F5F5F5F5F5F5F5F5F5F5F5E2E2F5E2EFE2F5E2E2F5F5F5F5F5F5F5F5F5F5F5F5F5F5F5F50FF5F50FF5F50FF5F50F0FF5F5F50FF5F50FF50FF5F50FF50FF5F50F0FF50FF50FF5F50FF50FF5F5F50FF5F5F5F5F5F5F5F5F5F5F5F5F5F5F5F5F5F5F5F5F5F5F5F5F5F5F5F5F5F5F5F5
310
F5F5F5F5F5F5F5F5F5F5F5F5F5F5F5F5F50F0FF5F5F50F0FF5F5F50FF50F0FF5F50FF50FF5F50FF50FF5F50F0FF5F5F50FF50FF5F50FF5F5F5F5F5F5F5F5F5BEF5F5F5F5F5F5F5F5F5F5F5F5F5F5F5F5F5E2E2F5E2EFE2F5E2E2F5F5F5F5F5F5F5F5F5F5F5F5F5F5F5F50FF5F5F50F0FF50FF5F50F0FF5F50FF50FF50FF5F5
310
0FF50FF5F5F50F0FF5F50FF50FF5F50FF50FF5F50FF5F5F5F5F5F5F5F5F5F5F5F5F5F5F5F5F5F5F5F5F5F5F5F5F5F5F5F5F5F5F5F5F5F5F5F5F5F5F5F5F5F5F5F5F5F5F5F5F50FF50FF5F5F50F0FF5F5F50FF50FF50FF50FF5F50FF50FF5F5F50F0F0FF5F5F50FF50FF50FF5F5F5F5F5F5F5F5F5BEF5F5F5F5F5F5F5F5F5F5
310
F5F5F5F5F5F5F5E2E2F5E2EFE2F5E2E2F5F5F5F5F5F5F5F5F5F5F5F5F5F5F5F50F0FF5F5F5F50FF50FF50FF50FF50F0FF50FF5F50FF50FF5F5F50F0F0F0FF5F50FF50FF5F50FF50FF50FF5F5F5F5F5F5F5F5F5F5F5F5F5F5F5F5F5F5F5F5F5F5F5F5F5F5F5F5F5F5F5F5F5F5F5F5F5F5F5F5F5F5F5F5F5F5F5F5F50F0FF50F
310
F5F50FF50FF5F5F50F0F0FF50FF5F50FF50FF5F5F50F0F0FF50FF5F5F50FF50F0FF5F5F5F5F5F5F5F5F5BEF5F5F5F5F5F5F5F5F5F5F5F5F5F5F5F5F5E2E2F5E2EFE2F5E2E2F5F5F5F5F5F5F5F5F5F5F5F5F5F5F5F50F0F0FF5F5F5F50FF50FF50FF50F0FF50FBEBEBEBEF5BEBEBE0F0FF50FF50FF5F50FF50FF5F50FF50F0F
310
F5F5F5F5F5F5F5F5F5F5F5F5F5F5F5F5F5F5F5F5F5F5F5F5F5F5F5F5F5F5F5F5F5F5F5F5F5F5F5F5F5F5F5F5F5F5F5F5F50FF50FF50FF5F50FF50FF5F5F50FF50FBEF5BEBEF5BEBEBE0F0FF50F0FF50FF5F5F50FF50FF5F5F5F5F5F5F5F5F5BEF5F5F5F5F5F5F5F5F5F5F5F5F5F5F5F5F5E2E2F5E2EFE2F5E2E2F5F5F5F5F5
310
F5F5F5F5F5F5F5F5F5F5F50FF50F0FF5F5F5F50FF50FF50FF50F0FF5BEBEBEBEF5BEBEBE0FF5F50F0FF50FF5F50FF50FF5F50FF50FF5F5F5F5F5F5F5F5F5F5F5F5F5F5F5F5F5F5F5F5F5F5F5F5F5F5F5F5F5F5F5F5F5F5F5F5F5F5F5F5F5F5F5F5F5F5F5F5F50FF5F50FF50FF5F50FF50FF5F50F0FF5BEBEBEBEF5BEBEBE0F
310
F5F50FF50FF50FF5F5F5BEBEF5F5F5BEF5F5F5F5F5BEF5F5F5F5F5F5F5F5F5F5F5F5F5F5F5F5F5E2E2F5E2EFE2F5E2E2F5F5F5F5F5F5F5F5F5F5F5F5F5F5F5F50FF5F50F0F0FF5F5F50F0FF5F50F0FF5F5F5BEBEF5BEBEBEBEF5F5F50FF50FF50FF5F50FF50FF5F50F0FF5F5F5F5F5F5F5F5F5F5F5F5F5F5F5F5F5F5F5F5F5
310
F5F5F5F5F5F5F5F5F5F5F5F5F5F5F5F5F5F5F5F5F5F5F5F5F5F5F5F50F0FF5F50FF50FF5F50FF50FF50FF5F5F5BEBEF5BEBEBEBEF5F5F50FF5F50FF50FF5F5F5BEBEBEBEBEBEF5F5F5F5BEF5F5F5F5F5F5F5F5F5F5F5F5F5F5F5F5F5E2E2F5E2EFE2F5E2E2F5F5F5F5F5F5F5F5F5F5F5F5F5F5F5F50FF5F5F50FF50FF5F5F5
310
0F0FF5F50FF50FBEBEBEF5BEBEBEBEF5F50F0FF5F50FF50FF5F50FF50FF5F50FF5F5F5F5F5F5F5F5F5F5F5F5F5F5F5F5F5F5F5F5F5F5F5F5F5F5F5F5F5F5F5F5F5F5F5F5F5F5F5F5F5F5F5F5F5F5F5F5F50FF50FF5F50FF50FF5F50FF50F0FF50FBEBEBEF5BEBEBEBEF5F50F0F0FF5F50FF50FF5F5BEF5BEF5BEBEF5F5F5F5
310
BEBEF5F5F5F5F5F5F5F5F5F5F5F5F5F5F5F5E2E2F5E2EFE2F5E2E2F5F5F5F5F5F5F5F5F5F5F5F5F5F5F5F50F0FF5F5F50FF50FF5F50FF50FF50F0FF50FF5F5F50FF50FF5F50FF50FF5F5F50FF50FF5F50FF50FF50FF5F5F5F5F5F5F5F5F5F5F5F5F5F5F5F5F5F5F5F5F5F5F5F5F5F5F5F5F5F5F5F5F5F5F5F5F5F5F5F5F5F5
310
F5F5F5F5F5F5F50F0FF50FF5F50FF50FF5F50FF50F0FF50FF5F5F50FF50FF5F50FF50FF50FF5F50FF50FF50F0FBE0FBEF5F5BEBEBEBEBEF5F5F5F5F5F5F5F5F5F5F5F5F5F5F5F5E2E2F5E2EFE2F5E2E2F5F5F5F5F5F5F5F5F5F5F5F5F5F5F5F50FF50FF5F5F50FF50FF5F50FF50F0FF50FF5F5F50FF50FF5F50FF50F0F0FF5
310
F5F50FF50FF5F50FF50F0FF5F5F5F5F5F5F5F5F5F5F5F5F5F5F5F5F5F5F5F5F5F5F5F5F5F5F5F5F5F5F5F5F5F5F5F5F5F5F5F5F5F5F5F5F5F5F5F5F50FF50FF50FF5F50FF50FF5F50F0FF50FF5F5F50FF50FF5F50FF50F0F0FF50FF5F50FF50FF5F5F50FBEF5F5F5F5BEF5F5F5F5F5F5F5F5F5F5F5F5F5F5F5F5F5F5E2E2F5
310
E2EFE2F5E2E2F5F5F5F5F5F5F5F5F5F5F5F5F5F5F5F50F0FF50FF5F5F50FF50FF5F50FF50F0FF5F5F50FF50FF5F50FF50FF50FF50FF5F5F50FF50FF5F50FF50FF5F5F5F5F5F5F5F5F5F5F5F5F5F5F5F5F5F5F5F5F5F5F5F5F5F5F5F5F5F5F5F5F5F5F5F5F5F5F5F5F5F5F5F5F5F5F5F5F50FF5F50FF50FF5F50FF50FF5F50F
310
0FF5F5F50FF50FF5F50FF50FF50FF50FF50FF5F50FF50FF5F5F50FF5F5F5F5F5F5F5F5F5F5F5F5F5F5F5F5F5F5F5F5F5F5F5E2E2F5E2EFE2F5F5E2F5F5F5F5F5F5F5F5F5F5F5F5F5F5F5F50FF50FF50F0FF5F50FF50FF5F50F0FF5F5F50FF50FF5F50FF50FF5F50F0FF50FF5F5F50FF50FF5F50F0FF5F5F5F5F5F5F5F5F5F5
310
F5F5F5F5F5F5F5F5F5F5F5F5F5F5F5F5F5F5F5F5F5F5F5F5F5F5F5F5F5F5F5F5F5F5F5F5F5F5F50FF5F5F50FF50FF5F50FF50FF50FF5F5F50FF50FF5F50FF50FF5F50FF5F50FF50FF5F50FF50FF5F50FF5F5F5F5F5F5F5F5F5F5F5F5F5F5F5F5F5F5F5F5F5F5F5E2F5F5E2EFE2F5F5E2F5F5F5F5F5F5F5F5F5F5F5F5F5F5F5
310
F50FF5F50FF5F50FF5F50F0FF5F5F50FF5F50FF50FF5F50FF50FF5F50F0FF50FF50FF5F5F50FF50FF5F50FF5F5F5F5F5F5F5F5F5F5F5F5F5F5F5F5F5F5F5F5F5F5F5F5F5F5F5F5F5F5F5F5F5F5F5F5F5F5F5F5F5F5F5F5F5F5F5F5F50F0FF5F5F50F0FF5F5F50FF50F0FF5F50FF50FF5F50FF50FF5F50F0F0FF5F50FF50FF5
310
F50FF50FF50FF5F5F5F5F5F5F5F5F5F5F5F5F5F5F5F5F5F5F5F5F5F5F5E2F5F5E2EFE2F5F5E2F5F5F5F5F5F5F5F5F5F5F5F5F5F5F5F50F0FF5F50F0FF50FF5F50F0FF5F50FF50FF50FF5F50FF50FF5F50FF50FF5F50FF50FF5F5F50FF50FF50FF5F5F5F5F5F5F5F5F5F5F5F5F5F5F5F5F5F5F5F5F5F5F5F5F5F5F5F5F5F5F5
310
F5F5F5F5F5F5F5F5F5F5F5F5F5F5F5F5F5F50FF50FF5F50FF50FF5F5F50FF50FF50FF50FF5F50FF50FF5F50FF50FF50FF5F50FF50FF5F50FF50F0FF5F5F5F5F5F5F5F5F5F5F5F5F5F5F5F5F5F5F5F5F5F5F5E2F5F5E2EFE2F5F5E2F5F5F5F5F5F5F5F5F5F5F5F5F5F5F5F50FF50FF5F5F50FF50FF5F50F0FF50F0FF50FF5F5
310
0FF50FF5F50FF50F0F0FF5F50FF50FF5F5F50FF50F0FF5F5F5F5F5F5F5F5F5F5F5F5F5F5F5F5F5F5F5F5F5F5F5F5F5F5F5F5F5F5F5F5F5F5F5F5F5F5F5F5F5F5F5F5F5F5F5F5F50F0FF50FF5F50FF50FF5F5F50F0F0FF50FF5F50FF50FF5F50FF50F0F0FF50FF5F50FF50FF5F50FF50FF5F5F5F5F5F5F5F5F5F5F5F5F5F5F5
310
F5F5F5F5F5F5F5F5E2F5F5E2EFE2F5F5E2F5F5F5F5F5F5F5F5F5F5F5F5F5F5F5F50F0FF50FF5F5F50FF50FF5F50F0F0FF50FF5F50FF50FF5F50FF50FF50FF50FF5F50F0F0FF5F5F50FF50FF5F5F5F5F5F5F5F5F5F5F5F5F5F5F5F5F5F5F5F5F5F5F5F5F5F5F5F5F5F5F5F5F5F5F5F5F5F5F5F5F5F5F5F5F5F5F5F5F50FF50F
310
F50FF5F50FF50FF5F5F50FF50FF5F50FF50FF5F50FF50FF50FF50FF50FF5F50FF50FF5F50F0FF5F5F5F5F5F5F5F5F5F5F5F5F5F5F5F5F5F5F5F5F5F5F5E2F5F5E2EFE2F5F5E2F5F5F5F5F5F5F5F5F5F5F5F5F5F5F5F50FF50FF50FF5F5F50FF50FF5F50F0F0FF5F50FF50FF5F50FF50FF5F50F0FF50FF5F5F50F0FF5F5F50F
310
0FF5F5F5F5F5F5F5F5F5F5F5F5F5F5F5F5F5F5F5F5F5F5F5F5F5F5F5F5F5F5F5F5F5F5F5F5F5F5F5F5F5F5F5F5F5F5F5F5F50FF5F50FF50FF5F50FF50FF5F50F0FF5F50FF50FF5F50FF50FF5F50FF5F50FF50FF5F50FF50FF5F50FF5F5F5F5F5F5F5F5F5F5F5F5F5F5F5F5F5F5F5F5F5F5F5E2F5F5E2EFE2F5F5E2F5F5F5F5
310
F5F5F5F5F5F5F5F5F5F5F5F50FF5F50FF50FF5F5F50F0FF5F5F50FF5F50FF50FF5F50FF50FF5F5F50FF50FF50FF5F5F50F0FF5F5F50FF5F5F5F5F5F5F5F5F5F5F5F5F5F5F5F5F5F5F5F5F5F5F5F5F5F5F5F5F5F5F5F5F5F5F5F5F5F5F5F5F5F5F5F5F5F5F5F5F50F0FF5F50FF50FF5F50FF50FF50FF5F50FF50FF5F50FF50F
310
F5F5F50FF5F5F50FF50FF5F50FF50FF50FF5F5F5F5F5F5F5F5F5F5F5F5F5F5F5F5F5F5F5F5F5F5F5E2F5F5E2EFE2F5F5E2F5F5F5F5F5F5F5F5F5F5F5F5F5F5F5F50FF5F5F50FF50FF5F5F50F0FF5F50FF50FF50FF5F50FF50FF5F5F50F0FF5F50FF50FF5F5F50F0FF5F50FF5F5F5F5F5F5F5F5F5F5F5F5F5F5F5F5F5F5F5F5
310
F5F5F5F5F5F5F5F5F5F5F5F5F5F5F5F5F5F5F5F5F5F5F5F5F5F5F5F5F50F0FF5F5F50FF50FF5F50FF50F0FF50FF50FF5F50FF50FF5F5F50F0F0FF5F5F50FF50FF5F50FF50F0FF5F5F5F5F5F5F5F5F5F5F5F5F5F5F5F5F5F5F5F5F5F5F5E2F5F5E2EFE2F5E2E2F5F5F5F5F5F5F5F5F5F5F5F5F5F5F5F50F0F0FF5F50FF50FF5
310
F5F50F0FF50F0FF50FF5F50FF50FF5F5F50FF50F0FF5F50FF50FF5F5F50F0FF50FF5F5F5F5F5F5F5F5F5F5F5F5F5F5F5F5F5F5F5F5F5F5F5F5F5F5F5F5F5F5F5F5F5F5F5F5F5F5F5F5F5F5F5F5F5F5F5F5F50FF50FF5F5F50FF50FF5F50FF50F0FF50FF5F50FF50FF5F5F50FF50FF50FF5F5F50FF50FF5F50FF50FF5F5F5F5
310
F5F5F5F5F5F5F5F5F5F5F5F5F5F5F5F5F5F5F5E2E2F5E2EFE2F5E2E2F5F5F5F5F5F5F5F5F5F5F5F5F5F5F5F5F5F5F5F5F5F5F5F5F5F5F5F5F5F5F5F5F5F5F5F5F5F5F5F5F5F5F5F5F5F5F5F5F5F5F5F5F5F5F5F5F5F5F5F5F5F5F5F5F5F5F5F5F5F5F5F5F5F5F5F5F5F5F5F5F5F5F5F5F5F5F5F5F5F5F5F5F5F5F5F5F5F5F5
310
F5F5F5F5F5F5F5F5F5F5F5F5F5F5F5F5F5F5F5F5F5F5F5F5F5F5F5F5F5F5F5F5F5F5F5F5F5F5F5F5F5F5F5F5F5F5F5F5F5F5F5F5F5F5F5F5F5F5F5F5F5F5F5F5F5F5F5F5F5F5F5F5E2E2F5E2EFE2F5E2E2F5F5F5F5F5F5F5F5F5F5F5F5F5F5F5F5F5F5E2E2E2E2E2F5F5E2E2E2E2E2E2E2E2E2F5E2E2E2E2E2E2E2E2E2E2E2
310
E2E2E2E2E2E2E2E2E2F5F5F5F5F5F5F5F5F5F5F5F5F5F5F5F5F5F5F5F5F5F5F5F5F5F5F5F5F5F5F5F5F5F5F5F5F5F5F5F5F5F5F5F5F5F5F5F5F5F5F5F5F5F5F5F5F5F5F5F5F5F5F5F5F5F5F5F5F5F5F5F5F5F5F5F5F5F5F5F5F5F5F5F5F5F5F5F5F5F5F5F5F5F5F5F5F5F5F5F5F5F5F5F5F5F5F5F5F5F5F5F5F5F5F5F5E2E2
310
F5E2EFE2F5E2E2F5F5F5F5F5F5F5F5F5F5F5F5F5F5F5F5F5F5E2E2E2E2E2F5F5E2E2E2E2E2E2E2E2E2E2F5E2E2E2E2E2E2E2E2E2E2F5E2E2E2E2E2E2E2E2E2F5F5F5F5F5F5F5F5F5F5F5F5F5F5F5F5F5F5F5F5F5F5F5F5F5F5F5F5F5F5F5F5F5F5F5F5F5F5F5F5F5F5F5F5F5F5F5F5F5F5F5F5F5F5F5F5F5F5F5F5F5F5F5F5
310
F5F5F5F5F5F5F5F5F5F5F5F5F5F5F5F5F5F5F5F5F5F5F5F5F5F5F5F5F5F5F5F5F5F5F5F5F5F5F5F5F5F5F5F5F5F5F5F5F5F5F5E2E2F5E2EFE2F5E2E2F5F5F5F5F5F5F5F5F5F5F5F5F5F5F5F5F5F5E2E2E2E2E2F5F5E2E2E2E2E2E2E2E2E2E2E2E2E2E2E2E2E2E2E2E2E2E2E2E2E2E2E2E2E2E2E2F5F5F5F5F5F5F5F5F5F5F5
310
F5F5F5F5F5F5F5F5F5F5F5F5F5F5F5F5F5F5F5F5F5F5F5F5F5F5F5F5F5F5F5F5F5F5F5F5F5F5F5F5F5F5F5F5F5F5F5F5E2E2E2E2E2E2F5E2E2E2E2E2E2E2E2E2E2E2E2E2E2E2E2E2E2F5E2E2E2E2E2E2E2E2E2E2E2E2F5F5F5F5F5F5F5F5F5F5F5F5F5F5F5F5F5F5E2E2F5E2EFE2F5E2E2F5F5F5F5F5F5F5F5F5F5F5F5F5F5
310
F5F5F5F5F5F5F5E2E2F5F5E2E2E2F5F5E2F5F5E2F5F5F5F5E2F5F5F5F5F5F5F5F5E2F5E2F5F5F5F5F5F5F5F5F5F5F5F5F5F5F5F5F5F5F5F5F5F5F5F5F5F5F5F5F5F5F5F5F5F5F5F5F5F5F5F5F5F5F5F5F5F5F5F5F5F5F5F5F5F5F5F5F5F5F5F5F5F5F5F5F5E2E2E2E2E2F5F5F5E2E2E2E2E2E2E2E2E2E2E2E2E2E2E2E2E2F5
310
E2E2E2E2E2E2E2E2E2E2E2E2F5F5F5F5F5F5F5F5F5F5F5F5F5F5F5F5F5F5E2E2F5E2EFE2F5E2E2F5F5F5F5F5F5F5F5F5F5F5F5F5F5F5F5F5F5F5F5F5F5F5F5F5F5F5F5F5F5F5F5F5F5F5F5F5F5F5F5F5F5F5F5F5F5F5F5F5F5F5F5F5E2E2F5F5F5F5F5F5F5F5F5F5F5F5F5F5F5F5F5F5F5F5F5F5F5F5F5F5F5F5F5F5F5F5F5
310
F5F5F5F5F5F5F5F5F5F5F5F5F5F5F5F5F5F5F5F5F5F5F5F5F5F5F5E2E2E2E2E2E2F5E2E2E2E2E2E2E2E2E2E2E2E2E2E2E2E2E2E2E2E2E2E2E2E2E2E2E2E2E2E2E2F5F5F5F5F5F5F5F5F5F5F5F5F5F5F5F5F5F5E2E2F5E2EFE2F5E2E2F5F5F5F5F5F5F5F5F5F5F5F5F5F5F5F5F5F5E2E2E2E2F5F5E2E2F5F5F5F5F5F5F5E2E2
310
E2E2E2E2E2F5F5E2F5E2F5E2E2E2E2E2E2E2E2E2F5F5F5F5F5F5F5F5F5F5F5F5F5F5F5F5F5F5F5F5F5F5F5F5F5F5F5F5F5F5F5F5F5F5F5F5F5F5F5F5F5F5F5F5F5F5F5F5F5F5F5F5F5F5F5F5F5F5F5F5F5F5F5E2E2F5F5E2E2E2E2F5E2E2F5E2F5F5F5F5F5E2F5F5F5F5F5F5F5F5E2F5E2F5F5F5F5F5F5F5F5F5F5F5F5F5F5
310
F5F5F5F5F5F5F5F5F5E2E2F5E2EFE2F5E2E2F5F5F5F5F5F5F5F5F5F5F5F5F5F5F5F5F5F5E2E2E2E2F5F5E2E2F5F5F5F5F5F5F5E2E2E2E2E2E2E2E2F5E2F5E2E2E2E2E2E2E2E2E2E2E2F5F5F5F5F5F5F5F5F5F5F5F5F5F5F5F5F5F5F5F5F5F5F5F5F5F5F5F5F5F5F5F5F5F5F5F5F5F5F5F5F5F5F5F5F5F5F5F5F5F5F5F5F5F5
310
F5F5F5F5F5F5F5F5F5F5F5F5F5F5F5F5F5F5F5F5F5F5F5F5E2F5F5F5F5F5F5F5F5F5F5F5F5F5F5F5F5F5F5F5F5F5F5F5F5F5F5F5F5F5F5F5F5F5F5F5F5F5E2E2F5E2EFE2F5E2E2F5F5F5F5F5F5F5F5F5F5F5F5F5F5F5F5F5F5E2E2E2E2F5F5E2E2F5F5E2E2E2F5F5E2E2E2E2E2E2E2E2F5E2E2E2E2E2E2E2E2E2E2E2E2E2F5
310
F5F5F5F5F5F5F5F5F5F5F5F5F5F5F5F5F5F5F5F5F5F5F5F5F5F5F5F5F5F5F5F5F5F5F5F5F5F5F5F5F5F5F5F5E2E2E2E2E2F5F5E2F5F5F5F5F5F5F5E2F5E2E2F5F5F5E2F5E2E2E2E2E2E2E2F5E2E2F5F5E2E2E2E2E2E2E2E2E2F5F5F5F5F5F5F5F5F5F5F5F5F5F5F5F5F5F5F5F5F5F5F5F5F5F5E2E2F5E2EFE2F5E2E2F5F5F5
310
F5F5F5F5F5F5F5F5F5F5F5F5F5F5F5E2E2E2E2F5F5E2E2F5F5F5F5F5F5F5F5F5E2F5F5F5F5F5F5E2E2E2F5E2E2F5F5F5F5F5F5F5F5F5F5F5F5F5F5F5F5F5F5F5F5F5F5F5F5F5F5F5F5F5F5F5F5F5F5F5F5F5F5F5F5F5F5F5F5F5F5F5F5F5F5F5F5F5E2E2E2E2F5F5E2F5F5F5E2E2F5F5E2E2E2E2E2E2E2E2E2E2E2E2E2E2E2
310
E2F5E2E2F5F5E2E2E2E2E2E2E2E2E2F5F5F5F5F5F5F5F5F5F5F5F5F5F5F5F5F5F5F5F5F5F5F5F5F5F5E2E2F5E2EFE2F5E2E2F5F5F5F5F5F5F5F5F5F5F5F5F5F5F5F5F5F5F5F5F5F5F5F5F5F5F5F5F5F5F5F5F5F5F5F5F5F5F5F5F5F5F5F5F5F5F5F5F5F5F5F5F5F5F5F5F5F5F5F5F5F5F5F5F5F5F5F5F5F5F5F5F5F5F5F5F5
310
F5F5F5F5F5F5F5F5F5F5F5F5F5F5F5F5F5F5F5F5F5F5F5E2E2E2E2E2F5F5E2F5F5F5F5F5F5F5E2F5E2E2F5F5F5E2F5E2E2E2E2E2E2E2E2F5E2F5F5E2E2E2E2E2E2E2E2E2F5F5F5F5F5F5F5F5F5F5F5F5F5F5F5F5F5F5F5F5F5F5F5F5F5F5E2E2F5E2EFE2F5E2E2F5F5F5F5F5F5F5F5F5F5F5F5F5F5F5F5F5F5F5F5F5F5F5F5
310
F5F5F5F5F5F5F5F5F5F5F5F5F5F5F5F5F5F5F5F5F5F5F5F5F5F5F5F5F5F5F5F5F5F5F5F5F5F5F5F5F5F5F5F5F5F5F5F5F5F5F5F5F5F5F5F5F5F5F5F5F5F5F5F5F5F5F5F5F5F5F5F5F5F5F5F5E2E2E2E2E2F5F5E2F5F5F5F5F5F5F5E2E2E2E2F5F5F5E2E2F5E2E2F5F5F5F5F5F5F5F5F5E2F5F5F5F5F5F5F5F5F5F5F5F5F5F5
310
F5F5F5F5F5F5F5F5F5F5F5F5F5F5F5F5F5F5F5F5E2E2F5E2EFE2F5E2E2F5F5F5F5F5F5F5F5F5F5F5F5F5F5F5F5F5F5F5F5F5F5F5F5F5F5F5F5F5F5F5F5F5F5F5F5F5F5F5F5F5F5F5F5F5F5F5F5F5F5F5F5F5F5F5F5F5F5F5F5F5F5F5F5F5F5F5F5F5F5F5F5F5F5F5F5F5F5F5F5F5F5F5F5F5F5F5F5F5F5F5F5F5F5F5F5F5F5
310
F5F5F5F5F5F5F5F5F5F5F5F5F5F5F5F5F5F5F5F5F5F5F5F5F5F5F5F5F5F5F5F5F5F5F5F5F5F5F5F5F5F5F5F5F5F5F5F5F5F5F5F5F5F5F5F5F5F5F5F5F5F5F5F5F5F5F5F5F5F5F5F5F5E2E2F5E2EFE2F5E2E2F5F5F5F5F5F5F5F5F5F5F5F5F5F5F5F5F5F5F5F5F5F5F5F5F5F5F5F5F5F5F5F5F5F5F5F5F5F5F5F5F5F5F5F5F5
310
F5F5F5F5F5F5F5F5F5F5F5F5F5F5F5F5F5F5F5F5F5F5F5F5F5F5F5F5F5F5F5F5F5F5F5F5F5F5F5F5F5F5F5F5F5F5F5F5F5F5F5F5F5F5F5F5F5F5F5F5F5F5F5F5F5F5F5F5F5F5F5F5F5F5F5F5F5F5F5F5F5F5F5F5F5F5F5F5F5F5F5F5F5F5F5F5F5F5F5F5F5F5F5F5F5F5F5F5F5F5F5F5F5F5F5F5F5F5F5F5F5F5F5F5F5F5E2
310
E2F5E2EFE2F5E2E2F5F5F5F5F5F5F5F5F5F5F5F5F5F5F5F5F5F5F5F5F5F5F5F5F5F5F5F5F5F5F5F5F5F5F5F5F5F5F5F5F5F5F5F5F5F5F5F5F5F5F5F5F5F5F5F5F5F5F5F5F5F5F5F5F5F5F5F5F5F5F5F5F5F5F5F5F5F5F5F5F5F5F5F5F5F5F5F5F5F5F5F5F5F5F5F5F5F5F5F5F5F5F5F5F5F5F5F5F5F5F5F5F5F5F5F5F5F5F5
310
F5F5F5F5F5F5F5F5F5F5F5F5F5F5F5F5F5F5F5F5F5F5F5F5F5F5F5F5F5F5F5F5F5F5F5F5F5F5F5F5F5F5F5F5F5F5F5F5F5F5F5F5E2E2F5E2EFE2F5F5E2F5F5F5F5F5F5F5F5F5F5F5F5F5F5F5F5F5F5F5F5F5F5F5F5F5F5F5F5F5F5F5F5F5F5F5F5F5F5F5F5F5F5F5F5F5F5F5F5F5F5F5F5F5F5F5F5F5F5F5F5F5F5F5F5F5F5
310
F5F5F5F5F5F5F5F5F5F5F5F5F5F5F5F5F5F5F5F5F5F5F5F5F5F5F5F5F5F5F5F5F5F5F5F5F5F5F5F5F5F5F5F5F5F5F5F5F5F5F5F5F5F5F5F5F5F5F5F5F5F5F5F5F5F5F5F5F5F5F5F5F5F5F5F5F5F5F5F5F5F5F5F5F5F5F5F5F5F5F5F5F5F5F5F5F5F5F5F5F5F5F5F5F5E2F5F5E2EFE2F5F5E2F5F5F5F5F5F5F5F5F5F5F5F5F5
310
F5F5F5F5F5F5F5F5F5F5F5F5F5F5F5F5F5F5F5F5F5F5F5F5F5F5F5F5F5F5F5F5F5F5F5F5F5F5F5F5F5F5F5F5F5F5F5F5F5F5F5F5F5F5F5F5F5F5F5F5F5F5F5F5F5F5F5F5F5F5F5F5F5F5F5F5F5F5F5F5F5F5F5F5F5F5F5F5F5F5F5F5F5F5F5F5F5F5F5F5F5F5F5F5F5F5F5F5F5F5F5F5F5F5F5F5F5F5F5F5F5F5F5F5F5F5F5
310
F5F5F5F5F5F5F5F5F5F5F5F5F5F5F5F5F5F5F5F5F5F5F5F5F5F5F5F5F5F5F5E2F5F5E2EFE2F5F5E2F5F5F5F5F5F5F5F5F5F5F5F5F5F5F5F5F5F5F5F5F5F5F5F5F5F5F5F5F5F5F5F5F5F5F5F5F5F5F5F5F5F5F5F5F5F5F5F5F5F5F5F5F5F5F5F5F5F5F5F5F5F5F5F5F5F5F5F5F5F5F5F5F5F5F5F5F5F5F5F5F5F5F5F5F5F5F5
310
F5F5F5F5F5F5F5F5F5F5F5F5F5F5F5F5F5F5F5F5F5F5F5F5F5F5F5F5F5F5F5F5F5F5F5F5F5F5F5F5F5F5F5F5F5F5F5F5F5F5F5F5F5F5F5F5F5F5F5F5F5F5F5F5F5F5F5F5F5F5F5F5F5F5F5F5F5F5F5F5F5F5F5F5E2F5F5E2EFE2F5F5E2F5F5F5F5F5F5F5F5F5F5F5F5F5F5F5F5F5F5F5F5F5F5F5F5F5F5F5F5F5F5F5F5F5F5
310
F5F5F5F5F5F5F5F5F5F5F5F5F5F5F5F5F5F5F5F5F5F5F5F5F5F5F5F5F5F5F5F5F5F5F5F5F5F5F5F5F5F5F5F5F5F5F5F5F5F5F5F5F5F5F5F5F5F5F5F5F5F5F5F5F5F5F5F5F5F5F5F5F5F5F5F5F5F5F5F5F5F5F5F5F5F5F5F5F5F5F5F5F5F5F5F5F5F5F5F5F5F5F5F5F5F5F5F5F5F5F5F5F5F5F5F5F5F5F5F5F5F5F5F5F5F5F5
310
F5F5F5F5F5F5F5F5F5F5E2F5F5E2EFE2F5F5E2F5F5F5F5F5F5F5F5F5F5F5F5F5F5F5F5F5F5F5F5F5F5F5F5F5F5F5F5F5F5F5F5F5F5F5F5F5F5F5F5F5F5F5F5F5F5F5F5F5F5F5F5F5F5F5F5F5F5F5F5F5F5F5F5F5F5F5F5F5F5F5F5F5F5F5F5F5F5F5F5F5F5F5F5F5F5F5F5F5F5F5F5F5F5F5F5F5F5F5F5F5F5F5F5F5F5F5F5
310
F5F5F5F5F5F5F5F5F5F5F5F5F5F5F5F5F5F5F5F5F5F5F5F5F5F5F5F5F5F5F5F5F5F5F5F5F5F5F5F5F5F5F5F5F5F5F5F5F5F5F5F5F5F5F5F5F5F5F5F5F5F5F5E2F5F5E2EFE2F5F5E2F5F5E2E2E2E2E2E2E2E2E2E2E2E2E2E2E2E2E2E2E2E2E2E2E2E2E2E2E2E2E2F5F5F5F5F5F5F5F5F5F5F5F5F5F5F5F5F5F5F5F5F5F5F5F5
310
F5F5F5F5F5F5F5F5F5F5F5F5F5F5F5F5F5F5F5F5F5F5F5F5F5F5F5F5F5F5F5F5F5F5F5F5F5F5F5F5F5F5F5F5F5F5F5F5F5F5F5F5F5F5F5F5F5F5F5F5F5F5F5F5F5F5F5F5F5F5F5F5F5F5F5F5F5F5F5F5F5F5F5F5F5F5F5F5F5F5F5F5F5F5F5F5F5F5F5F5F5F5F5F5F5F5F5F5F5F5F5F5F5F5F5F5E2F5F5E2EFE2F5F5E2F5F5
310
E2E2E2E2E2E2E2E2E2E2E2E2E2E2E2E2E2E2E2E2E2E2E2E2E2E2E2E2E2F5F5F5F5F5F5F5F5F5F5F5F5F5F5F5F5F5F5F5F5F5F5F5F5F5F5F5F5F5F5F5F5F5F5F5F5F5F5F5F5F5F5F5F5F5F5F5F5F5F5F5F5F5F5F5F5F5F5F5F5F5F5F5F5F5F5F5F5F5F5F5F5F5F5F5F5F5F5F5F5F5F5F5F5F5F5F5F5F5F5F5F5F5F5F5F5F5F5
310
F5F5F5F5F5F5F5F5F5F5F5F5F5F5F5F5F5F5F5F5F5F5F5F5F5F5F5F5F5F5F5F5F5F5F5F5F5F5F5F5F5F5E2F5F5E2EFE2F5F5E2F5F5E2E2E2E2E2E2E2E2E2E2E2E2E2E2E2E2E2E2E2E2E2E2E2E2E2E2E2E2E2F5F5F5F5F5F5F5F5F5F5F5F5F5F5F5F5F5F5F5F5F5F5F5F5F5F5F5F5F5F5F5F5F5F5F5F5F5F5F5F5F5F5F5F5F5
310
F5F5F5F5F5F5F5F5F5F5F5F5F5F5F5F5F5F5F5F5F5F5F5F5F5F5F5F5F5F5F5F5F5F5F5F5F5F5F5F5F5F5F5F5F5F5F5F5F5F5F5F5F5F5F5F5F5F5F5F5F5F5F5F5F5F5F5F5F5F5F5F5F5F5F5F5F5F5F5F5F5F5F5F5F5F5F5F5F5F5F5F5F5F5F5E2F5F5E2EFE2F5F5E2F5F5E2E2E2E2E2E2E2E2E2E2E2E2E2E2E2E2E2E2E2E2E2
310
E2E2E2E2E2E2E2E2F5F5F5F5F5F5F5F5F5F5F5F5F5F5F5F5F5F5F5F5F5F5F5F5F5F5F5F5F5F5F5F5F5F5F5F5F5F5F5F5F5F5F5F5F5F5F5F5F5F5F5F5F5F5F5F5F5F5F5F5F5F5F5F5F5F5F5F5F5F5F5F5F5F5F5F5F5F5F5F5F5F5F5F5F5F5F5F5F5F5F5F5F5F5F5F5F5F5F5F5F5F5F5F5F5F5F5F5F5F5F5F5F5F5F5F5F5F5F5
310
F5F5F5F5F5F5F5F5F5F5F5F5F5F5F5F5F5F5F5F5F5E2F5F5E2EFE2F5E2E2F5F5E2E2E2E2E2E2E2E2E2E2E2E2E2E2E2E2E2E2E2E2E2E2E2E2E2E2E2E2E2E2E2E2E2E2E2E2E2E2E2E2E2E2E2E2E2E2E2E2E2E2E2E2E2E2E2E2E2E2E2E2E2E2E2E2E2E2E2E2F5F5F5F5F5F5F5F5F5F5F5F5F5F5F5F5F5F5F5F5F5F5F5F5F5F5F5
310
F5F5F5F5F5F5F5F5F5F5F5F5F5F5F5F5F5F5F5F5F5F5F5F5F5F5F5F5F5F5F5F5F5F5F5F5F5F5F5F5F5F5F5F5F5F5F5F5F5F5F5F5F5F5F5F5F5F5F5F5F5F5F5F5F5F5F5F5F5F5F5F5F5F5E2E2F5E2EFE2F5E2E2F5F5E2E2E2E2E2E2E2E2E2E2E2E2E2E2E2E2E2E2E2E2E2E2E2E2E2E2E2E2E2E2E2E2E2E2E2E2E2E2E2E2E2E2
310
E2E2E2E2E2E2E2E2E2E2E2E2E2E2E2E2E2E2E2E2E2E2E2E2E2E2F5F5F5F5F5F5F5F5F5F5F5F5F5F5F5F5F5F5F5F5F5F5F5F5F5F5F5F5F5F5F5F5F5F5F5F5F5F5F5F5F5F5F5F5F5F5F5F5F5F5F5F5F5F5F5F5F5F5F5F5F5F5F5F5F5F5F5F5F5F5F5F5F5F5F5F5F5F5F5F5F5F5F5F5F5F5F5F5F5F5F5F5F5F5F5F5F5F5F5F5F5
310
E2E2F5E2EFE2F5E2E2F5F5E2E2E2E2E2E2E2E2E2E2E2E2E2E2E2E2E2E2E2E2E2E2E2E2E2E2E2E2E2E2E2E2E2E2E2E2E2E2E2E2E2E2E2E2E2E2E2E2E2E2E2E2E2E2E2E2E2E2E2E2E2E2E2E2E2E2E2E2F5F5F5F5F5F5F5F5F5F5F5F5F5F5F5F5F5F5F5F5F5F5F5F5F5F5F5F5F5F5F5F5F5F5F5F5F5F5F5F5F5F5F5F5F5F5F5F5
310
F5F5F5F5F5F5F5F5F5F5F5F5F5F5F5F5F5F5F5F5F5F5F5F5F5F5F5F5F5F5F5F5F5F5F5F5F5F5F5F5F5F5F5F5F5F5F5F5F5F5F5F5F5E2E2F5E2EFE2F5E2E2F5F5E2E2E2E2E2E2E2E2E2E2E2E2E2E2E2E2E2E2E2E2E2E2E2E2E2E2E2E2E2E2E2E2E2E2E2E2E2E2E2E2E2E2E2E2E2E2E2E2E2E2E2E2E2E2E2E2E2E2E2E2E2E2E2
310
E2E2E2E2E2F5F5F5F5F5F5F5F5F5F5F5F5F5F5F5F5F5F5F5F5F5F5F5F5F5F5F5F5F5F5F5F5F5F5F5F5F5F5F5F5F5F5F5F5F5F5F5F5F5F5F5F5F5F5F5F5F5F5F5F5F5F5F5F5F5F5F5F5F5F5F5F5F5F5F5F5F5F5F5F5F5F5F5F5F5F5F5F5F5F5F5F5F5F5F5F5F5F5F5F5F5E2E2F5E2EFE2F5E2E2F5F5E2E2E2E2E2E2E2E2E2E2
310
E2E2E2E2E2E2E2E2E2E2E2E2E2E2E2E2E2E2E2E2E2E2E2E2E2E2E2E2E2E2E2E2E2E2E2E2E2E2E2E2E2E2E2E2E2E2E2E2E2E2E2E2E2E2E2E2E2E2F5F5F5F5F5F5F5F5F5F5F5F5F5F5F5F5F5F5F5F5F5F5F5F5F5F5F5F5F5F5F5F5F5F5F5F5F5F5F5F5F5F5F5F5F5F5F5F5F5F5F5F5F5F5F5F5F5F5F5F5F5F5F5F5F5F5F5F5F5
310
F5F5F5F5F5F5F5F5F5F5F5F5F5F5F5F5F5F5F5F5F5F5F5F5F5F5F5F5F5F5F5F5E2E2F5E2EFE2F5E2E2F5F5F5F5F5F5F5F5F5F5F5F5F5F5F5F5F5F5F5F5F5F5F5F5F5F5F5F5F5F5F5F5F5F5F5F5F5F5F5F5F5F5F5F5F5F5F5F5F5F5F5F5F5F5F5F5F5F5F5F5F5F5F5F5F5F5F5F5F5F5F5F5F5F5F5F5F5F5F5F5F5F5F5F5F5F5
310
F5F5F5F5F5F5F5F5F5F5F5F5F5F5F5F5F5F5F5F5F5F5F5F5F5F5F5F5F5F5F5F5F5F5F5F5F5F5F5F5F5F5F5F5F5F5F5F5F5F5F5F5F5F5F5F5F5F5F5F5F5F5F5F5F5F5F5F5F5F5F5F5F5F5F5F5F5F5F5F5F5F5F5F5F5E2E2F5E2EFE2F5E2E2E2E2E2E2E2E2E2E2E2E2E2E2E2E2E2E2E2E2E2E2E2E2E2E2E2E2E2E2E2E2E2E2E2
310
E2E2E2E2E2E2E2E2E2E2E2E2E2E2E2E2E2E2E2E2E2E2E2E2E2E2E2E2E2E2E2E2E2E2E2E2E2E2E2E2E2E2E2E2E2E2E2E2E2E2E2E2E2E2E2E2E2E2E2E2E2E2E2E2E2E2E2E2E2E2E2E2E2E2E2E2E2E2E2E2E2E2E2E2E2E2E2E2E2E2E2E2E2E2E2E2E2E2E2E2E2E2E2E2E2E2E2E2E2E2E2E2E2E2E2E2E2E2E2E2E2E2E2E2E2E2E2
310
E2E2E2E2E2E2E2E2E2E2E2E2E2F5E2EFE2F5E2E2E2E2E2E2E2E2F5F5F5F5F5F5F5F5F5E2E2E2E2E2E2E2E2E2E2E2E2E2E2E2E2F5F5F5F5F5F5F5F5F5E2E2E2E2E2E2E2E2E2E2E2E2E2E2E2E2F5F5F5F5F5F5F5F5F5E2E2E2E2E2E2E2E2E2E2E2E2E2E2E2E2F5F5F5F5F5F5F5F5F5E2E2E2E2E2E2E2E2E2E2E2E2E2E2E2E2F5
310
F5F5F5F5F5F5F5F5E2E2E2E2E2E2E2E2E2E2E2E2E2E2E2E2F5F5F5F5F5F5F5F5F5E2E2E2E2E2E2E2E2E2E2E2E2E2E2E2E2F5F5F5F5F5F5F5F5F5E2E2E2E2E2E2E2E2F5E2EFE2F5F5F5F5F5F5F5F5F5F5F5F5F5F5F5F5F5F5F5F5F5F5F5F5F5F5F5F5F5F5F5F5F5F5F5F5F5F5F5F5F5F5F5F5F5F5F5F5F5F5F5F5F5F5F5F5F5
310
F5F5F5F5F5F5F5F5F5F5F5F5F5F5F5F5F5F5F5F5F5F5F5F5F5F5F5F5F5F5F5F5F5F5F5F5F5F5F5F5F5F5F5F5F5F5F5F5F5F5F5F5F5F5F5F5F5F5F5F5F5F5F5F5F5F5F5F5F5F5F5F5F5F5F5F5F5F5F5F5F5F5F5F5F5F5F5F5F5F5F5F5F5F5F5F5F5F5F5F5F5F5F5F5F5F5F5F5F5F5F5F5F5F5F5F5F5F5F5F5E2EFE2E2E2E2E2
310
E2E2E2E2E2E2E2E2E2E2E2E2E2E2E2E2E2E2E2E2E2E2E2E2E2E2E2E2E2E2E2E2E2E2E2E2E2E2E2E2E2E2E2E2E2E2E2E2E2E2E2E2E2E2E2E2E2E2E2E2E2E2E2E2E2E2E2E2E2E2E2E2E2E2E2E2E2E2E2E2E2E2E2E2E2E2E2E2E2E2E2E2E2E2E2E2E2E2E2E2E2E2E2E2E2E2E2E2E2E2E2E2E2E2E2E2E2E2E2E2E2E2E2E2E2E2E2
310
E2E2E2E2E2E2E2E2E2E2E2E2E2E2E2E2E2E2E2E2E2E2E2E2E2E2E2E2E2E2E2E2E2E2E2E2E2E2E2E2E2E2E2E2E2E2E2EF
  0
XRECORD
  5
2921
102
{ACAD_REACTORS
330
2920
102
}
330
2920
100
AcDbXrecord
280
     1
102
SHADEPLOT
 70
     0
102
SHADEPLOTRESLEVEL
 70
     2
102
SHADEPLOTCUSTOMDPI
 70
   300
  0
XRECORD
  5
719
102
{ACAD_REACTORS
330
718
102
}
330
718
100
AcDbXrecord
280
     1
102
MATERIAL
148
0.0
149
0.0
149
0.0
 93
        0
 94
      127
282
     0
 72
     1
 77
     1
171
     1
175
     1
179
     1
273
     0
  0
XRECORD
  5
717
102
{ACAD_REACTORS
330
716
102
}
330
716
100
AcDbXrecord
280
     1
102
MATERIAL
148
0.0
149
0.0
149
0.0
 93
        0
 94
      127
282
     0
 72
     1
 77
     1
171
     1
175
     1
179
     1
273
     0
  0
XRECORD
  5
71B
102
{ACAD_REACTORS
330
71A
102
}
330
71A
100
AcDbXrecord
280
     1
102
MATERIAL
148
0.0
149
0.0
149
0.0
 93
        0
 94
      127
282
     0
 72
     1
 77
     1
171
     1
175
     1
179
     1
273
     0
  0
CELLSTYLEMAP
  5
291D
102
{ACAD_REACTORS
330
28CA
102
}
330
28CA
100
AcDbCellStyleMap
 90
        3
300
CELLSTYLE
  1
TABLEFORMAT_BEGIN
 90
        5
170
     1
 91
        0
 92
    32768
 62
   257
 93
        1
300
CONTENTFORMAT
  1
CONTENTFORMAT_BEGIN
 90
        0
 91
        0
 92
      512
 93
        0
300

 40
0.0
140
1.0
 94
        5
 62
     0
340
11
144
6.0
309
CONTENTFORMAT_END
171
     1
301
MARGIN
  1
CELLMARGIN_BEGIN
 40
1.5
 40
1.5
 40
1.5
 40
1.5
 40
0.18
 40
0.18
309
CELLMARGIN_END
 94
        6
 95
        1
302
GRIDFORMAT
  1
GRIDFORMAT_BEGIN
 90
        0
 91
        1
 62
     0
 92
       -2
340
0
 93
        0
 40
0.045
309
GRIDFORMAT_END
 95
        2
302
GRIDFORMAT
  1
GRIDFORMAT_BEGIN
 90
        0
 91
        1
 62
     0
 92
       -2
340
0
 93
        0
 40
0.045
309
GRIDFORMAT_END
 95
        4
302
GRIDFORMAT
  1
GRIDFORMAT_BEGIN
 90
        0
 91
        1
 62
     0
 92
       -2
340
0
 93
        0
 40
0.045
309
GRIDFORMAT_END
 95
        8
302
GRIDFORMAT
  1
GRIDFORMAT_BEGIN
 90
        0
 91
        1
 62
     0
 92
       -2
340
0
 93
        0
 40
0.045
309
GRIDFORMAT_END
 95
       16
302
GRIDFORMAT
  1
GRIDFORMAT_BEGIN
 90
        0
 91
        1
 62
     0
 92
       -2
340
0
 93
        0
 40
0.045
309
GRIDFORMAT_END
 95
       32
302
GRIDFORMAT
  1
GRIDFORMAT_BEGIN
 90
        0
 91
        1
 62
     0
 92
       -2
340
0
 93
        0
 40
0.045
309
GRIDFORMAT_END
309
TABLEFORMAT_END
  1
CELLSTYLE_BEGIN
 90
        1
 91
        1
300
_TITLE
309
CELLSTYLE_END
300
CELLSTYLE
  1
TABLEFORMAT_BEGIN
 90
        5
170
     1
 91
        0
 92
        0
 62
   257
 93
        1
300
CONTENTFORMAT
  1
CONTENTFORMAT_BEGIN
 90
        0
 91
        0
 92
      512
 93
        0
300

 40
0.0
140
1.0
 94
        5
 62
     0
340
11
144
4.5
309
CONTENTFORMAT_END
171
     1
301
MARGIN
  1
CELLMARGIN_BEGIN
 40
1.5
 40
1.5
 40
1.5
 40
1.5
 40
0.18
 40
0.18
309
CELLMARGIN_END
 94
        6
 95
        1
302
GRIDFORMAT
  1
GRIDFORMAT_BEGIN
 90
        0
 91
        1
 62
     0
 92
       -2
340
0
 93
        0
 40
0.045
309
GRIDFORMAT_END
 95
        2
302
GRIDFORMAT
  1
GRIDFORMAT_BEGIN
 90
        0
 91
        1
 62
     0
 92
       -2
340
0
 93
        0
 40
0.045
309
GRIDFORMAT_END
 95
        4
302
GRIDFORMAT
  1
GRIDFORMAT_BEGIN
 90
        0
 91
        1
 62
     0
 92
       -2
340
0
 93
        0
 40
0.045
309
GRIDFORMAT_END
 95
        8
302
GRIDFORMAT
  1
GRIDFORMAT_BEGIN
 90
        0
 91
        1
 62
     0
 92
       -2
340
0
 93
        0
 40
0.045
309
GRIDFORMAT_END
 95
       16
302
GRIDFORMAT
  1
GRIDFORMAT_BEGIN
 90
        0
 91
        1
 62
     0
 92
       -2
340
0
 93
        0
 40
0.045
309
GRIDFORMAT_END
 95
       32
302
GRIDFORMAT
  1
GRIDFORMAT_BEGIN
 90
        0
 91
        1
 62
     0
 92
       -2
340
0
 93
        0
 40
0.045
309
GRIDFORMAT_END
309
TABLEFORMAT_END
  1
CELLSTYLE_BEGIN
 90
        2
 91
        1
300
_HEADER
309
CELLSTYLE_END
300
CELLSTYLE
  1
TABLEFORMAT_BEGIN
 90
        5
170
     1
 91
        0
 92
        0
 62
   257
 93
        1
300
CONTENTFORMAT
  1
CONTENTFORMAT_BEGIN
 90
        0
 91
        0
 92
      512
 93
        0
300

 40
0.0
140
1.0
 94
        2
 62
     0
340
11
144
4.5
309
CONTENTFORMAT_END
171
     1
301
MARGIN
  1
CELLMARGIN_BEGIN
 40
1.5
 40
1.5
 40
1.5
 40
1.5
 40
0.18
 40
0.18
309
CELLMARGIN_END
 94
        6
 95
        1
302
GRIDFORMAT
  1
GRIDFORMAT_BEGIN
 90
        0
 91
        1
 62
     0
 92
       -2
340
0
 93
        0
 40
0.045
309
GRIDFORMAT_END
 95
        2
302
GRIDFORMAT
  1
GRIDFORMAT_BEGIN
 90
        0
 91
        1
 62
     0
 92
       -2
340
0
 93
        0
 40
0.045
309
GRIDFORMAT_END
 95
        4
302
GRIDFORMAT
  1
GRIDFORMAT_BEGIN
 90
        0
 91
        1
 62
     0
 92
       -2
340
0
 93
        0
 40
0.045
309
GRIDFORMAT_END
 95
        8
302
GRIDFORMAT
  1
GRIDFORMAT_BEGIN
 90
        0
 91
        1
 62
     0
 92
       -2
340
0
 93
        0
 40
0.045
309
GRIDFORMAT_END
 95
       16
302
GRIDFORMAT
  1
GRIDFORMAT_BEGIN
 90
        0
 91
        1
 62
     0
 92
       -2
340
0
 93
        0
 40
0.045
309
GRIDFORMAT_END
 95
       32
302
GRIDFORMAT
  1
GRIDFORMAT_BEGIN
 90
        0
 91
        1
 62
     0
 92
       -2
340
0
 93
        0
 40
0.045
309
GRIDFORMAT_END
309
TABLEFORMAT_END
  1
CELLSTYLE_BEGIN
 90
        3
 91
        2
300
_DATA
309
CELLSTYLE_END
  0
XRECORD
  5
2922
102
{ACAD_REACTORS
330
28CA
102
}
330
28CA
100
AcDbXrecord
280
     1
102
ACAD_ROUNDTRIP_PRE2007_TABLESTYLE
 90
      512
 91
        0
  1

 92
      512
 93
        0
  2

 94
      512
 95
        0
  3

  0
XRECORD
  5
292E
102
{ACAD_REACTORS
330
292D
102
}
330
292D
100
AcDbXrecord
280
     1
102
RTVSPropertyOp0
 70
     1
102
RTVSPropertyOp1
 70
     1
102
RTVSPropertyOp2
 70
     1
102
RTVSPropertyOp3
 70
     1
102
RTVSPropertyOp4
 70
     1
102
RTVSPropertyOp5
 70
     1
102
RTVSPropertyOp6
 70
     1
102
RTVSPropertyOp7
 70
     1
102
RTVSPropertyOp8
 70
     1
102
RTVSPropertyOp9
 70
     1
102
RTVSPropertyOp10
 70
     1
102
RTVSPropertyOp11
 70
     1
102
RTVSPropertyOp12
 70
     1
102
RTVSPropertyOp13
 70
     1
102
RTVSPropertyOp14
 70
     1
102
RTVSPropertyOp15
 70
     1
102
RTVSPropertyOp16
 70
     1
102
RTVSPropertyOp17
 70
     1
102
RTVSPropertyOp18
 70
     1
102
RTVSPropertyOp19
 70
     1
102
RTVSPropertyOp20
 70
     1
102
RTVSPropertyOp21
 70
     1
102
RTVSPropertyOp22
 70
     1
102
RTVSPropertyOp23
 70
     1
102
RTVSPropertyOp24
 70
     1
102
RTVSPropertyOp25
 70
     1
102
RTVSPropertyOp26
 70
     1
102
RTVSPropertyOp27
 70
     1
102
RTVSPropertyOp28
 70
     1
102
RTVSPropertyOp29
 70
     1
102
RTVSPropertyOp30
 70
     1
102
RTVSPropertyOp31
 70
     1
102
RTVSPropertyOp32
 70
     1
  0
XRECORD
  5
2932
102
{ACAD_REACTORS
330
2931
102
}
330
2931
100
AcDbXrecord
280
     1
102
RTVSPropertyOp0
 70
     1
102
RTVSPropertyOp1
 70
     1
102
RTVSPropertyOp2
 70
     1
102
RTVSPropertyOp3
 70
     1
102
RTVSPropertyOp4
 70
     1
102
RTVSPropertyOp5
 70
     1
102
RTVSPropertyOp6
 70
     1
102
RTVSPropertyOp7
 70
     1
102
RTVSPropertyOp8
 70
     1
102
RTVSPropertyOp9
 70
     1
102
RTVSPropertyOp10
 70
     1
102
RTVSPropertyOp11
 70
     1
102
RTVSPropertyOp12
 70
     1
102
RTVSPropertyOp13
 70
     1
102
RTVSPropertyOp14
 70
     1
102
RTVSPropertyOp15
 70
     1
102
RTVSPropertyOp16
 70
     1
102
RTVSPropertyOp17
 70
     1
102
RTVSPropertyOp18
 70
     1
102
RTVSPropertyOp19
 70
     1
102
RTVSPropertyOp20
 70
     1
102
RTVSPropertyOp21
 70
     1
102
RTVSPropertyOp22
 70
     1
102
RTVSPropertyOp23
 70
     1
102
RTVSPropertyOp24
 70
     1
102
RTVSPropertyOp25
 70
     1
102
RTVSPropertyOp26
 70
     1
102
RTVSPropertyOp27
 70
     1
102
RTVSPropertyOp28
 70
     1
102
RTVSPropertyOp29
 70
     1
102
RTVSPropertyOp30
 70
     1
102
RTVSPropertyOp31
 70
     1
102
RTVSPropertyOp32
 70
     1
  0
XRECORD
  5
2930
102
{ACAD_REACTORS
330
292F
102
}
330
292F
100
AcDbXrecord
280
     1
102
RTVSPropertyOp0
 70
     1
102
RTVSPropertyOp1
 70
     1
102
RTVSPropertyOp2
 70
     1
102
RTVSPropertyOp3
 70
     1
102
RTVSPropertyOp4
 70
     1
102
RTVSPropertyOp5
 70
     1
102
RTVSPropertyOp6
 70
     1
102
RTVSPropertyOp7
 70
     1
102
RTVSPropertyOp8
 70
     1
102
RTVSPropertyOp9
 70
     1
102
RTVSPropertyOp10
 70
     1
102
RTVSPropertyOp11
 70
     1
102
RTVSPropertyOp12
 70
     1
102
RTVSPropertyOp13
 70
     1
102
RTVSPropertyOp14
 70
     1
102
RTVSPropertyOp15
 70
     1
102
RTVSPropertyOp16
 70
     1
102
RTVSPropertyOp17
 70
     1
102
RTVSPropertyOp18
 70
     1
102
RTVSPropertyOp19
 70
     1
102
RTVSPropertyOp20
 70
     1
102
RTVSPropertyOp21
 70
     1
102
RTVSPropertyOp22
 70
     1
102
RTVSPropertyOp23
 70
     1
102
RTVSPropertyOp24
 70
     1
102
RTVSPropertyOp25
 70
     1
102
RTVSPropertyOp26
 70
     1
102
RTVSPropertyOp27
 70
     1
102
RTVSPropertyOp28
 70
     1
102
RTVSPropertyOp29
 70
     1
102
RTVSPropertyOp30
 70
     1
102
RTVSPropertyOp31
 70
     1
102
RTVSPropertyOp32
 70
     1
  0
XRECORD
  5
292C
102
{ACAD_REACTORS
330
292B
102
}
330
292B
100
AcDbXrecord
280
     1
102
RTVSPropertyOp0
 70
     1
102
RTVSPropertyOp1
 70
     1
102
RTVSPropertyOp2
 70
     1
102
RTVSPropertyOp3
 70
     1
102
RTVSPropertyOp4
 70
     1
102
RTVSPropertyOp5
 70
     1
102
RTVSPropertyOp6
 70
     1
102
RTVSPropertyOp7
 70
     1
102
RTVSPropertyOp8
 70
     1
102
RTVSPropertyOp9
 70
     1
102
RTVSPropertyOp10
 70
     1
102
RTVSPropertyOp11
 70
     1
102
RTVSPropertyOp12
 70
     1
102
RTVSPropertyOp13
 70
     1
102
RTVSPropertyOp14
 70
     1
102
RTVSPropertyOp15
 70
     1
102
RTVSPropertyOp16
 70
     1
102
RTVSPropertyOp17
 70
     1
102
RTVSPropertyOp18
 70
     1
102
RTVSPropertyOp19
 70
     1
102
RTVSPropertyOp20
 70
     1
102
RTVSPropertyOp21
 70
     1
102
RTVSPropertyOp22
 70
     1
102
RTVSPropertyOp23
 70
     1
102
RTVSPropertyOp24
 70
     1
102
RTVSPropertyOp25
 70
     1
102
RTVSPropertyOp26
 70
     1
102
RTVSPropertyOp27
 70
     1
102
RTVSPropertyOp28
 70
     1
102
RTVSPropertyOp29
 70
     1
102
RTVSPropertyOp30
 70
     1
102
RTVSPropertyOp31
 70
     1
102
RTVSPropertyOp32
 70
     1
  0
XRECORD
  5
293A
102
{ACAD_REACTORS
330
2939
102
}
330
2939
100
AcDbXrecord
280
     1
102
RTVSPropertyOp0
 70
     1
102
RTVSPropertyOp1
 70
     1
102
RTVSPropertyOp2
 70
     1
102
RTVSPropertyOp3
 70
     1
102
RTVSPropertyOp4
 70
     1
102
RTVSPropertyOp5
 70
     1
102
RTVSPropertyOp6
 70
     1
102
RTVSPropertyOp7
 70
     1
102
RTVSPropertyOp8
 70
     1
102
RTVSPropertyOp9
 70
     1
102
RTVSPropertyOp10
 70
     1
102
RTVSPropertyOp11
 70
     1
102
RTVSPropertyOp12
 70
     1
102
RTVSPropertyOp13
 70
     1
102
RTVSPropertyOp14
 70
     1
102
RTVSPropertyOp15
 70
     1
102
RTVSPropertyOp16
 70
     1
102
RTVSPropertyOp17
 70
     1
102
RTVSPropertyOp18
 70
     1
102
RTVSPropertyOp19
 70
     1
102
RTVSPropertyOp20
 70
     1
102
RTVSPropertyOp21
 70
     1
102
RTVSPropertyOp22
 70
     1
102
RTVSPropertyOp23
 70
     1
102
RTVSPropertyOp24
 70
     1
102
RTVSPropertyOp25
 70
     1
102
RTVSPropertyOp26
 70
     1
102
RTVSPropertyOp27
 70
     1
102
RTVSPropertyOp28
 70
     1
102
RTVSPropertyOp29
 70
     1
102
RTVSPropertyOp30
 70
     1
102
RTVSPropertyOp31
 70
     1
102
RTVSPropertyOp32
 70
     1
  0
XRECORD
  5
2942
102
{ACAD_REACTORS
330
2941
102
}
330
2941
100
AcDbXrecord
280
     1
102
RTVSPropertyOp0
 70
     1
102
RTVSPropertyOp1
 70
     1
102
RTVSPropertyOp2
 70
     1
102
RTVSPropertyOp3
 70
     1
102
RTVSPropertyOp4
 70
     1
102
RTVSPropertyOp5
 70
     1
102
RTVSPropertyOp6
 70
     1
102
RTVSPropertyOp7
 70
     1
102
RTVSPropertyOp8
 70
     1
102
RTVSPropertyOp9
 70
     1
102
RTVSPropertyOp10
 70
     1
102
RTVSPropertyOp11
 70
     1
102
RTVSPropertyOp12
 70
     1
102
RTVSPropertyOp13
 70
     1
102
RTVSPropertyOp14
 70
     1
102
RTVSPropertyOp15
 70
     1
102
RTVSPropertyOp16
 70
     1
102
RTVSPropertyOp17
 70
     1
102
RTVSPropertyOp18
 70
     1
102
RTVSPropertyOp19
 70
     1
102
RTVSPropertyOp20
 70
     1
102
RTVSPropertyOp21
 70
     1
102
RTVSPropertyOp22
 70
     1
102
RTVSPropertyOp23
 70
     1
102
RTVSPropertyOp24
 70
     1
102
RTVSPropertyOp25
 70
     1
102
RTVSPropertyOp26
 70
     1
102
RTVSPropertyOp27
 70
     1
102
RTVSPropertyOp28
 70
     1
102
RTVSPropertyOp29
 70
     1
102
RTVSPropertyOp30
 70
     1
102
RTVSPropertyOp31
 70
     1
102
RTVSPropertyOp32
 70
     1
  0
XRECORD
  5
2934
102
{ACAD_REACTORS
330
2933
102
}
330
2933
100
AcDbXrecord
280
     1
102
RTVSPropertyOp0
 70
     1
102
RTVSPropertyOp1
 70
     1
102
RTVSPropertyOp2
 70
     1
102
RTVSPropertyOp3
 70
     1
102
RTVSPropertyOp4
 70
     1
102
RTVSPropertyOp5
 70
     1
102
RTVSPropertyOp6
 70
     1
102
RTVSPropertyOp7
 70
     1
102
RTVSPropertyOp8
 70
     1
102
RTVSPropertyOp9
 70
     1
102
RTVSPropertyOp10
 70
     1
102
RTVSPropertyOp11
 70
     1
102
RTVSPropertyOp12
 70
     1
102
RTVSPropertyOp13
 70
     1
102
RTVSPropertyOp14
 70
     1
102
RTVSPropertyOp15
 70
     1
102
RTVSPropertyOp16
 70
     1
102
RTVSPropertyOp17
 70
     1
102
RTVSPropertyOp18
 70
     1
102
RTVSPropertyOp19
 70
     1
102
RTVSPropertyOp20
 70
     1
102
RTVSPropertyOp21
 70
     1
102
RTVSPropertyOp22
 70
     1
102
RTVSPropertyOp23
 70
     1
102
RTVSPropertyOp24
 70
     1
102
RTVSPropertyOp25
 70
     1
102
RTVSPropertyOp26
 70
     1
102
RTVSPropertyOp27
 70
     1
102
RTVSPropertyOp28
 70
     1
102
RTVSPropertyOp29
 70
     1
102
RTVSPropertyOp30
 70
     1
102
RTVSPropertyOp31
 70
     1
102
RTVSPropertyOp32
 70
     1
  0
XRECORD
  5
2938
102
{ACAD_REACTORS
330
2937
102
}
330
2937
100
AcDbXrecord
280
     1
102
RTVSPropertyOp0
 70
     1
102
RTVSPropertyOp1
 70
     1
102
RTVSPropertyOp2
 70
     1
102
RTVSPropertyOp3
 70
     1
102
RTVSPropertyOp4
 70
     1
102
RTVSPropertyOp5
 70
     1
102
RTVSPropertyOp6
 70
     1
102
RTVSPropertyOp7
 70
     1
102
RTVSPropertyOp8
 70
     1
102
RTVSPropertyOp9
 70
     1
102
RTVSPropertyOp10
 70
     1
102
RTVSPropertyOp11
 70
     1
102
RTVSPropertyOp12
 70
     1
102
RTVSPropertyOp13
 70
     1
102
RTVSPropertyOp14
 70
     1
102
RTVSPropertyOp15
 70
     1
102
RTVSPropertyOp16
 70
     1
102
RTVSPropertyOp17
 70
     1
102
RTVSPropertyOp18
 70
     1
102
RTVSPropertyOp19
 70
     1
102
RTVSPropertyOp20
 70
     1
102
RTVSPropertyOp21
 70
     1
102
RTVSPropertyOp22
 70
     1
102
RTVSPropertyOp23
 70
     1
102
RTVSPropertyOp24
 70
     1
102
RTVSPropertyOp25
 70
     1
102
RTVSPropertyOp26
 70
     1
102
RTVSPropertyOp27
 70
     1
102
RTVSPropertyOp28
 70
     1
102
RTVSPropertyOp29
 70
     1
102
RTVSPropertyOp30
 70
     1
102
RTVSPropertyOp31
 70
     1
102
RTVSPropertyOp32
 70
     1
  0
XRECORD
  5
295F
102
{ACAD_REACTORS
330
295E
102
}
330
295E
100
AcDbXrecord
280
     1
102
RTVSPropertyOp0
 70
     0
102
RTVSPropertyOp1
 70
     0
102
RTVSPropertyOp2
 70
     0
102
RTVSPropertyOp3
 70
     0
102
RTVSPropertyOp4
 70
     0
102
RTVSPropertyOp5
 70
     0
102
RTVSPropertyOp6
 70
     0
102
RTVSPropertyOp7
 70
     0
102
RTVSPropertyOp8
 70
     0
102
RTVSPropertyOp9
 70
     0
102
RTVSPropertyOp10
 70
     0
102
RTVSPropertyOp11
 70
     0
102
RTVSPropertyOp12
 70
     0
102
RTVSPropertyOp13
 70
     0
102
RTVSPropertyOp14
 70
     2
102
RTVSPropertyOp15
 70
     0
102
RTVSPropertyOp16
 70
     0
102
RTVSPropertyOp17
 70
     0
102
RTVSPropertyOp18
 70
     0
102
RTVSPropertyOp19
 70
     0
102
RTVSPropertyOp20
 70
     0
102
RTVSPropertyOp21
 70
     0
102
RTVSPropertyOp22
 70
     0
102
RTVSPropertyOp23
 70
     0
102
RTVSPropertyOp24
 70
     0
102
RTVSPropertyOp25
 70
     0
102
RTVSPropertyOp26
 70
     0
102
RTVSPropertyOp27
 70
     0
102
RTVSPropertyOp28
 70
     0
102
RTVSPropertyOp29
 70
     0
102
RTVSPropertyOp30
 70
     0
102
RTVSPropertyOp31
 70
     0
102
RTVSPropertyOp32
 70
     0
  0
XRECORD
  5
2940
102
{ACAD_REACTORS
330
293F
102
}
330
293F
100
AcDbXrecord
280
     1
102
RTVSPropertyOp0
 70
     1
102
RTVSPropertyOp1
 70
     1
102
RTVSPropertyOp2
 70
     1
102
RTVSPropertyOp3
 70
     1
102
RTVSPropertyOp4
 70
     1
102
RTVSPropertyOp5
 70
     1
102
RTVSPropertyOp6
 70
     1
102
RTVSPropertyOp7
 70
     1
102
RTVSPropertyOp8
 70
     1
102
RTVSPropertyOp9
 70
     1
102
RTVSPropertyOp10
 70
     1
102
RTVSPropertyOp11
 70
     1
102
RTVSPropertyOp12
 70
     1
102
RTVSPropertyOp13
 70
     1
102
RTVSPropertyOp14
 70
     1
102
RTVSPropertyOp15
 70
     1
102
RTVSPropertyOp16
 70
     1
102
RTVSPropertyOp17
 70
     1
102
RTVSPropertyOp18
 70
     1
102
RTVSPropertyOp19
 70
     1
102
RTVSPropertyOp20
 70
     1
102
RTVSPropertyOp21
 70
     1
102
RTVSPropertyOp22
 70
     1
102
RTVSPropertyOp23
 70
     1
102
RTVSPropertyOp24
 70
     1
102
RTVSPropertyOp25
 70
     1
102
RTVSPropertyOp26
 70
     1
102
RTVSPropertyOp27
 70
     1
102
RTVSPropertyOp28
 70
     1
102
RTVSPropertyOp29
 70
     1
102
RTVSPropertyOp30
 70
     1
102
RTVSPropertyOp31
 70
     1
102
RTVSPropertyOp32
 70
     1
  0
XRECORD
  5
2924
102
{ACAD_REACTORS
330
2923
102
}
330
2923
100
AcDbXrecord
280
     1
102
RTVSPropertyOp0
 70
     1
102
RTVSPropertyOp1
 70
     1
102
RTVSPropertyOp2
 70
     1
102
RTVSPropertyOp3
 70
     1
102
RTVSPropertyOp4
 70
     1
102
RTVSPropertyOp5
 70
     1
102
RTVSPropertyOp6
 70
     1
102
RTVSPropertyOp7
 70
     1
102
RTVSPropertyOp8
 70
     1
102
RTVSPropertyOp9
 70
     1
102
RTVSPropertyOp10
 70
     1
102
RTVSPropertyOp11
 70
     1
102
RTVSPropertyOp12
 70
     1
102
RTVSPropertyOp13
 70
     1
102
RTVSPropertyOp14
 70
     1
102
RTVSPropertyOp15
 70
     1
102
RTVSPropertyOp16
 70
     1
102
RTVSPropertyOp17
 70
     1
102
RTVSPropertyOp18
 70
     1
102
RTVSPropertyOp19
 70
     1
102
RTVSPropertyOp20
 70
     1
102
RTVSPropertyOp21
 70
     1
102
RTVSPropertyOp22
 70
     1
102
RTVSPropertyOp23
 70
     1
102
RTVSPropertyOp24
 70
     1
102
RTVSPropertyOp25
 70
     1
102
RTVSPropertyOp26
 70
     1
102
RTVSPropertyOp27
 70
     1
102
RTVSPropertyOp28
 70
     1
102
RTVSPropertyOp29
 70
     1
102
RTVSPropertyOp30
 70
     1
102
RTVSPropertyOp31
 70
     1
102
RTVSPropertyOp32
 70
     1
  0
XRECORD
  5
2926
102
{ACAD_REACTORS
330
2925
102
}
330
2925
100
AcDbXrecord
280
     1
102
RTVSPropertyOp0
 70
     1
102
RTVSPropertyOp1
 70
     1
102
RTVSPropertyOp2
 70
     1
102
RTVSPropertyOp3
 70
     1
102
RTVSPropertyOp4
 70
     1
102
RTVSPropertyOp5
 70
     1
102
RTVSPropertyOp6
 70
     1
102
RTVSPropertyOp7
 70
     1
102
RTVSPropertyOp8
 70
     1
102
RTVSPropertyOp9
 70
     1
102
RTVSPropertyOp10
 70
     1
102
RTVSPropertyOp11
 70
     1
102
RTVSPropertyOp12
 70
     1
102
RTVSPropertyOp13
 70
     1
102
RTVSPropertyOp14
 70
     1
102
RTVSPropertyOp15
 70
     1
102
RTVSPropertyOp16
 70
     1
102
RTVSPropertyOp17
 70
     1
102
RTVSPropertyOp18
 70
     1
102
RTVSPropertyOp19
 70
     1
102
RTVSPropertyOp20
 70
     1
102
RTVSPropertyOp21
 70
     1
102
RTVSPropertyOp22
 70
     1
102
RTVSPropertyOp23
 70
     1
102
RTVSPropertyOp24
 70
     1
102
RTVSPropertyOp25
 70
     1
102
RTVSPropertyOp26
 70
     1
102
RTVSPropertyOp27
 70
     1
102
RTVSPropertyOp28
 70
     1
102
RTVSPropertyOp29
 70
     1
102
RTVSPropertyOp30
 70
     1
102
RTVSPropertyOp31
 70
     1
102
RTVSPropertyOp32
 70
     1
  0
XRECORD
  5
2928
102
{ACAD_REACTORS
330
2927
102
}
330
2927
100
AcDbXrecord
280
     1
102
RTVSPropertyOp0
 70
     1
102
RTVSPropertyOp1
 70
     1
102
RTVSPropertyOp2
 70
     1
102
RTVSPropertyOp3
 70
     1
102
RTVSPropertyOp4
 70
     1
102
RTVSPropertyOp5
 70
     1
102
RTVSPropertyOp6
 70
     1
102
RTVSPropertyOp7
 70
     1
102
RTVSPropertyOp8
 70
     1
102
RTVSPropertyOp9
 70
     1
102
RTVSPropertyOp10
 70
     1
102
RTVSPropertyOp11
 70
     1
102
RTVSPropertyOp12
 70
     1
102
RTVSPropertyOp13
 70
     1
102
RTVSPropertyOp14
 70
     1
102
RTVSPropertyOp15
 70
     1
102
RTVSPropertyOp16
 70
     1
102
RTVSPropertyOp17
 70
     1
102
RTVSPropertyOp18
 70
     1
102
RTVSPropertyOp19
 70
     1
102
RTVSPropertyOp20
 70
     1
102
RTVSPropertyOp21
 70
     1
102
RTVSPropertyOp22
 70
     1
102
RTVSPropertyOp23
 70
     1
102
RTVSPropertyOp24
 70
     1
102
RTVSPropertyOp25
 70
     1
102
RTVSPropertyOp26
 70
     1
102
RTVSPropertyOp27
 70
     1
102
RTVSPropertyOp28
 70
     1
102
RTVSPropertyOp29
 70
     1
102
RTVSPropertyOp30
 70
     1
102
RTVSPropertyOp31
 70
     1
102
RTVSPropertyOp32
 70
     1
  0
XRECORD
  5
292A
102
{ACAD_REACTORS
330
2929
102
}
330
2929
100
AcDbXrecord
280
     1
102
RTVSPropertyOp0
 70
     1
102
RTVSPropertyOp1
 70
     1
102
RTVSPropertyOp2
 70
     1
102
RTVSPropertyOp3
 70
     1
102
RTVSPropertyOp4
 70
     1
102
RTVSPropertyOp5
 70
     1
102
RTVSPropertyOp6
 70
     1
102
RTVSPropertyOp7
 70
     1
102
RTVSPropertyOp8
 70
     1
102
RTVSPropertyOp9
 70
     1
102
RTVSPropertyOp10
 70
     1
102
RTVSPropertyOp11
 70
     1
102
RTVSPropertyOp12
 70
     1
102
RTVSPropertyOp13
 70
     1
102
RTVSPropertyOp14
 70
     1
102
RTVSPropertyOp15
 70
     1
102
RTVSPropertyOp16
 70
     1
102
RTVSPropertyOp17
 70
     1
102
RTVSPropertyOp18
 70
     1
102
RTVSPropertyOp19
 70
     1
102
RTVSPropertyOp20
 70
     1
102
RTVSPropertyOp21
 70
     1
102
RTVSPropertyOp22
 70
     1
102
RTVSPropertyOp23
 70
     1
102
RTVSPropertyOp24
 70
     1
102
RTVSPropertyOp25
 70
     1
102
RTVSPropertyOp26
 70
     1
102
RTVSPropertyOp27
 70
     1
102
RTVSPropertyOp28
 70
     1
102
RTVSPropertyOp29
 70
     1
102
RTVSPropertyOp30
 70
     1
102
RTVSPropertyOp31
 70
     1
102
RTVSPropertyOp32
 70
     1
  0
XRECORD
  5
294F
102
{ACAD_REACTORS
330
294E
102
}
330
294E
100
AcDbXrecord
280
     1
102
RTVSPropertyOp0
 70
     1
102
RTVSPropertyOp1
 70
     1
102
RTVSPropertyOp2
 70
     1
102
RTVSPropertyOp3
 70
     1
102
RTVSPropertyOp4
 70
     1
102
RTVSPropertyOp5
 70
     1
102
RTVSPropertyOp6
 70
     1
102
RTVSPropertyOp7
 70
     1
102
RTVSPropertyOp8
 70
     1
102
RTVSPropertyOp9
 70
     1
102
RTVSPropertyOp10
 70
     1
102
RTVSPropertyOp11
 70
     1
102
RTVSPropertyOp12
 70
     1
102
RTVSPropertyOp13
 70
     1
102
RTVSPropertyOp14
 70
     1
102
RTVSPropertyOp15
 70
     1
102
RTVSPropertyOp16
 70
     1
102
RTVSPropertyOp17
 70
     1
102
RTVSPropertyOp18
 70
     1
102
RTVSPropertyOp19
 70
     1
102
RTVSPropertyOp20
 70
     1
102
RTVSPropertyOp21
 70
     1
102
RTVSPropertyOp22
 70
     1
102
RTVSPropertyOp23
 70
     1
102
RTVSPropertyOp24
 70
     1
102
RTVSPropertyOp25
 70
     1
102
RTVSPropertyOp26
 70
     1
102
RTVSPropertyOp27
 70
     1
102
RTVSPropertyOp28
 70
     1
102
RTVSPropertyOp29
 70
     1
102
RTVSPropertyOp30
 70
     1
102
RTVSPropertyOp31
 70
     1
102
RTVSPropertyOp32
 70
     1
  0
XRECORD
  5
295B
102
{ACAD_REACTORS
330
295A
102
}
330
295A
100
AcDbXrecord
280
     1
102
RTVSPropertyOp0
 70
     0
102
RTVSPropertyOp1
 70
     0
102
RTVSPropertyOp2
 70
     0
102
RTVSPropertyOp3
 70
     0
102
RTVSPropertyOp4
 70
     0
102
RTVSPropertyOp5
 70
     0
102
RTVSPropertyOp6
 70
     0
102
RTVSPropertyOp7
 70
     0
102
RTVSPropertyOp8
 70
     0
102
RTVSPropertyOp9
 70
     0
102
RTVSPropertyOp10
 70
     0
102
RTVSPropertyOp11
 70
     0
102
RTVSPropertyOp12
 70
     0
102
RTVSPropertyOp13
 70
     0
102
RTVSPropertyOp14
 70
     2
102
RTVSPropertyOp15
 70
     0
102
RTVSPropertyOp16
 70
     0
102
RTVSPropertyOp17
 70
     0
102
RTVSPropertyOp18
 70
     0
102
RTVSPropertyOp19
 70
     0
102
RTVSPropertyOp20
 70
     0
102
RTVSPropertyOp21
 70
     0
102
RTVSPropertyOp22
 70
     0
102
RTVSPropertyOp23
 70
     0
102
RTVSPropertyOp24
 70
     0
102
RTVSPropertyOp25
 70
     0
102
RTVSPropertyOp26
 70
     0
102
RTVSPropertyOp27
 70
     0
102
RTVSPropertyOp28
 70
     0
102
RTVSPropertyOp29
 70
     0
102
RTVSPropertyOp30
 70
     0
102
RTVSPropertyOp31
 70
     0
102
RTVSPropertyOp32
 70
     0
  0
XRECORD
  5
293E
102
{ACAD_REACTORS
330
293D
102
}
330
293D
100
AcDbXrecord
280
     1
102
RTVSPropertyOp0
 70
     1
102
RTVSPropertyOp1
 70
     1
102
RTVSPropertyOp2
 70
     1
102
RTVSPropertyOp3
 70
     1
102
RTVSPropertyOp4
 70
     1
102
RTVSPropertyOp5
 70
     1
102
RTVSPropertyOp6
 70
     1
102
RTVSPropertyOp7
 70
     1
102
RTVSPropertyOp8
 70
     1
102
RTVSPropertyOp9
 70
     1
102
RTVSPropertyOp10
 70
     1
102
RTVSPropertyOp11
 70
     1
102
RTVSPropertyOp12
 70
     1
102
RTVSPropertyOp13
 70
     1
102
RTVSPropertyOp14
 70
     1
102
RTVSPropertyOp15
 70
     1
102
RTVSPropertyOp16
 70
     1
102
RTVSPropertyOp17
 70
     1
102
RTVSPropertyOp18
 70
     1
102
RTVSPropertyOp19
 70
     1
102
RTVSPropertyOp20
 70
     1
102
RTVSPropertyOp21
 70
     1
102
RTVSPropertyOp22
 70
     1
102
RTVSPropertyOp23
 70
     1
102
RTVSPropertyOp24
 70
     1
102
RTVSPropertyOp25
 70
     1
102
RTVSPropertyOp26
 70
     1
102
RTVSPropertyOp27
 70
     1
102
RTVSPropertyOp28
 70
     1
102
RTVSPropertyOp29
 70
     1
102
RTVSPropertyOp30
 70
     1
102
RTVSPropertyOp31
 70
     1
102
RTVSPropertyOp32
 70
     1
  0
XRECORD
  5
295D
102
{ACAD_REACTORS
330
295C
102
}
330
295C
100
AcDbXrecord
280
     1
102
RTVSPropertyOp0
 70
     0
102
RTVSPropertyOp1
 70
     0
102
RTVSPropertyOp2
 70
     0
102
RTVSPropertyOp3
 70
     0
102
RTVSPropertyOp4
 70
     0
102
RTVSPropertyOp5
 70
     0
102
RTVSPropertyOp6
 70
     0
102
RTVSPropertyOp7
 70
     0
102
RTVSPropertyOp8
 70
     0
102
RTVSPropertyOp9
 70
     0
102
RTVSPropertyOp10
 70
     0
102
RTVSPropertyOp11
 70
     0
102
RTVSPropertyOp12
 70
     0
102
RTVSPropertyOp13
 70
     0
102
RTVSPropertyOp14
 70
     2
102
RTVSPropertyOp15
 70
     0
102
RTVSPropertyOp16
 70
     0
102
RTVSPropertyOp17
 70
     0
102
RTVSPropertyOp18
 70
     0
102
RTVSPropertyOp19
 70
     0
102
RTVSPropertyOp20
 70
     0
102
RTVSPropertyOp21
 70
     0
102
RTVSPropertyOp22
 70
     0
102
RTVSPropertyOp23
 70
     0
102
RTVSPropertyOp24
 70
     0
102
RTVSPropertyOp25
 70
     0
102
RTVSPropertyOp26
 70
     0
102
RTVSPropertyOp27
 70
     0
102
RTVSPropertyOp28
 70
     0
102
RTVSPropertyOp29
 70
     0
102
RTVSPropertyOp30
 70
     0
102
RTVSPropertyOp31
 70
     0
102
RTVSPropertyOp32
 70
     0
  0
XRECORD
  5
2936
102
{ACAD_REACTORS
330
2935
102
}
330
2935
100
AcDbXrecord
280
     1
102
RTVSPropertyOp0
 70
     1
102
RTVSPropertyOp1
 70
     1
102
RTVSPropertyOp2
 70
     1
102
RTVSPropertyOp3
 70
     1
102
RTVSPropertyOp4
 70
     1
102
RTVSPropertyOp5
 70
     1
102
RTVSPropertyOp6
 70
     1
102
RTVSPropertyOp7
 70
     1
102
RTVSPropertyOp8
 70
     1
102
RTVSPropertyOp9
 70
     1
102
RTVSPropertyOp10
 70
     1
102
RTVSPropertyOp11
 70
     1
102
RTVSPropertyOp12
 70
     1
102
RTVSPropertyOp13
 70
     1
102
RTVSPropertyOp14
 70
     1
102
RTVSPropertyOp15
 70
     1
102
RTVSPropertyOp16
 70
     1
102
RTVSPropertyOp17
 70
     1
102
RTVSPropertyOp18
 70
     1
102
RTVSPropertyOp19
 70
     1
102
RTVSPropertyOp20
 70
     1
102
RTVSPropertyOp21
 70
     1
102
RTVSPropertyOp22
 70
     1
102
RTVSPropertyOp23
 70
     1
102
RTVSPropertyOp24
 70
     1
102
RTVSPropertyOp25
 70
     1
102
RTVSPropertyOp26
 70
     1
102
RTVSPropertyOp27
 70
     1
102
RTVSPropertyOp28
 70
     1
102
RTVSPropertyOp29
 70
     1
102
RTVSPropertyOp30
 70
     1
102
RTVSPropertyOp31
 70
     1
102
RTVSPropertyOp32
 70
     1
  0
XRECORD
  5
2959
102
{ACAD_REACTORS
330
2958
102
}
330
2958
100
AcDbXrecord
280
     1
102
RTVSPropertyOp0
 70
     1
102
RTVSPropertyOp1
 70
     1
102
RTVSPropertyOp2
 70
     1
102
RTVSPropertyOp3
 70
     1
102
RTVSPropertyOp4
 70
     1
102
RTVSPropertyOp5
 70
     1
102
RTVSPropertyOp6
 70
     1
102
RTVSPropertyOp7
 70
     1
102
RTVSPropertyOp8
 70
     1
102
RTVSPropertyOp9
 70
     1
102
RTVSPropertyOp10
 70
     1
102
RTVSPropertyOp11
 70
     1
102
RTVSPropertyOp12
 70
     1
102
RTVSPropertyOp13
 70
     1
102
RTVSPropertyOp14
 70
     1
102
RTVSPropertyOp15
 70
     1
102
RTVSPropertyOp16
 70
     1
102
RTVSPropertyOp17
 70
     1
102
RTVSPropertyOp18
 70
     1
102
RTVSPropertyOp19
 70
     1
102
RTVSPropertyOp20
 70
     1
102
RTVSPropertyOp21
 70
     1
102
RTVSPropertyOp22
 70
     1
102
RTVSPropertyOp23
 70
     1
102
RTVSPropertyOp24
 70
     1
102
RTVSPropertyOp25
 70
     1
102
RTVSPropertyOp26
 70
     1
102
RTVSPropertyOp27
 70
     1
102
RTVSPropertyOp28
 70
     1
102
RTVSPropertyOp29
 70
     1
102
RTVSPropertyOp30
 70
     1
102
RTVSPropertyOp31
 70
     1
102
RTVSPropertyOp32
 70
     1
  0
XRECORD
  5
2957
102
{ACAD_REACTORS
330
2956
102
}
330
2956
100
AcDbXrecord
280
     1
102
RTVSPropertyOp0
 70
     1
102
RTVSPropertyOp1
 70
     1
102
RTVSPropertyOp2
 70
     1
102
RTVSPropertyOp3
 70
     1
102
RTVSPropertyOp4
 70
     1
102
RTVSPropertyOp5
 70
     1
102
RTVSPropertyOp6
 70
     1
102
RTVSPropertyOp7
 70
     1
102
RTVSPropertyOp8
 70
     1
102
RTVSPropertyOp9
 70
     1
102
RTVSPropertyOp10
 70
     1
102
RTVSPropertyOp11
 70
     1
102
RTVSPropertyOp12
 70
     1
102
RTVSPropertyOp13
 70
     1
102
RTVSPropertyOp14
 70
     1
102
RTVSPropertyOp15
 70
     1
102
RTVSPropertyOp16
 70
     1
102
RTVSPropertyOp17
 70
     1
102
RTVSPropertyOp18
 70
     1
102
RTVSPropertyOp19
 70
     1
102
RTVSPropertyOp20
 70
     1
102
RTVSPropertyOp21
 70
     1
102
RTVSPropertyOp22
 70
     1
102
RTVSPropertyOp23
 70
     1
102
RTVSPropertyOp24
 70
     1
102
RTVSPropertyOp25
 70
     1
102
RTVSPropertyOp26
 70
     1
102
RTVSPropertyOp27
 70
     1
102
RTVSPropertyOp28
 70
     1
102
RTVSPropertyOp29
 70
     1
102
RTVSPropertyOp30
 70
     1
102
RTVSPropertyOp31
 70
     1
102
RTVSPropertyOp32
 70
     1
  0
XRECORD
  5
2951
102
{ACAD_REACTORS
330
2950
102
}
330
2950
100
AcDbXrecord
280
     1
102
RTVSPropertyOp0
 70
     1
102
RTVSPropertyOp1
 70
     1
102
RTVSPropertyOp2
 70
     1
102
RTVSPropertyOp3
 70
     1
102
RTVSPropertyOp4
 70
     1
102
RTVSPropertyOp5
 70
     1
102
RTVSPropertyOp6
 70
     1
102
RTVSPropertyOp7
 70
     1
102
RTVSPropertyOp8
 70
     1
102
RTVSPropertyOp9
 70
     1
102
RTVSPropertyOp10
 70
     1
102
RTVSPropertyOp11
 70
     1
102
RTVSPropertyOp12
 70
     1
102
RTVSPropertyOp13
 70
     1
102
RTVSPropertyOp14
 70
     1
102
RTVSPropertyOp15
 70
     1
102
RTVSPropertyOp16
 70
     1
102
RTVSPropertyOp17
 70
     1
102
RTVSPropertyOp18
 70
     1
102
RTVSPropertyOp19
 70
     1
102
RTVSPropertyOp20
 70
     1
102
RTVSPropertyOp21
 70
     1
102
RTVSPropertyOp22
 70
     1
102
RTVSPropertyOp23
 70
     1
102
RTVSPropertyOp24
 70
     1
102
RTVSPropertyOp25
 70
     1
102
RTVSPropertyOp26
 70
     1
102
RTVSPropertyOp27
 70
     1
102
RTVSPropertyOp28
 70
     1
102
RTVSPropertyOp29
 70
     1
102
RTVSPropertyOp30
 70
     1
102
RTVSPropertyOp31
 70
     1
102
RTVSPropertyOp32
 70
     1
  0
XRECORD
  5
2953
102
{ACAD_REACTORS
330
2952
102
}
330
2952
100
AcDbXrecord
280
     1
102
RTVSPropertyOp0
 70
     1
102
RTVSPropertyOp1
 70
     1
102
RTVSPropertyOp2
 70
     1
102
RTVSPropertyOp3
 70
     1
102
RTVSPropertyOp4
 70
     1
102
RTVSPropertyOp5
 70
     1
102
RTVSPropertyOp6
 70
     1
102
RTVSPropertyOp7
 70
     1
102
RTVSPropertyOp8
 70
     1
102
RTVSPropertyOp9
 70
     1
102
RTVSPropertyOp10
 70
     1
102
RTVSPropertyOp11
 70
     1
102
RTVSPropertyOp12
 70
     1
102
RTVSPropertyOp13
 70
     1
102
RTVSPropertyOp14
 70
     1
102
RTVSPropertyOp15
 70
     1
102
RTVSPropertyOp16
 70
     1
102
RTVSPropertyOp17
 70
     1
102
RTVSPropertyOp18
 70
     1
102
RTVSPropertyOp19
 70
     1
102
RTVSPropertyOp20
 70
     1
102
RTVSPropertyOp21
 70
     1
102
RTVSPropertyOp22
 70
     1
102
RTVSPropertyOp23
 70
     1
102
RTVSPropertyOp24
 70
     1
102
RTVSPropertyOp25
 70
     1
102
RTVSPropertyOp26
 70
     1
102
RTVSPropertyOp27
 70
     1
102
RTVSPropertyOp28
 70
     1
102
RTVSPropertyOp29
 70
     1
102
RTVSPropertyOp30
 70
     1
102
RTVSPropertyOp31
 70
     1
102
RTVSPropertyOp32
 70
     1
  0
XRECORD
  5
293C
102
{ACAD_REACTORS
330
293B
102
}
330
293B
100
AcDbXrecord
280
     1
102
RTVSPropertyOp0
 70
     1
102
RTVSPropertyOp1
 70
     1
102
RTVSPropertyOp2
 70
     1
102
RTVSPropertyOp3
 70
     1
102
RTVSPropertyOp4
 70
     1
102
RTVSPropertyOp5
 70
     1
102
RTVSPropertyOp6
 70
     1
102
RTVSPropertyOp7
 70
     1
102
RTVSPropertyOp8
 70
     1
102
RTVSPropertyOp9
 70
     1
102
RTVSPropertyOp10
 70
     1
102
RTVSPropertyOp11
 70
     1
102
RTVSPropertyOp12
 70
     1
102
RTVSPropertyOp13
 70
     1
102
RTVSPropertyOp14
 70
     1
102
RTVSPropertyOp15
 70
     1
102
RTVSPropertyOp16
 70
     1
102
RTVSPropertyOp17
 70
     1
102
RTVSPropertyOp18
 70
     1
102
RTVSPropertyOp19
 70
     1
102
RTVSPropertyOp20
 70
     1
102
RTVSPropertyOp21
 70
     1
102
RTVSPropertyOp22
 70
     1
102
RTVSPropertyOp23
 70
     1
102
RTVSPropertyOp24
 70
     1
102
RTVSPropertyOp25
 70
     1
102
RTVSPropertyOp26
 70
     1
102
RTVSPropertyOp27
 70
     1
102
RTVSPropertyOp28
 70
     1
102
RTVSPropertyOp29
 70
     1
102
RTVSPropertyOp30
 70
     1
102
RTVSPropertyOp31
 70
     1
102
RTVSPropertyOp32
 70
     1
  0
XRECORD
  5
294D
102
{ACAD_REACTORS
330
294C
102
}
330
294C
100
AcDbXrecord
280
     1
102
RTVSPropertyOp0
 70
     1
102
RTVSPropertyOp1
 70
     1
102
RTVSPropertyOp2
 70
     1
102
RTVSPropertyOp3
 70
     1
102
RTVSPropertyOp4
 70
     1
102
RTVSPropertyOp5
 70
     1
102
RTVSPropertyOp6
 70
     1
102
RTVSPropertyOp7
 70
     1
102
RTVSPropertyOp8
 70
     1
102
RTVSPropertyOp9
 70
     1
102
RTVSPropertyOp10
 70
     1
102
RTVSPropertyOp11
 70
     1
102
RTVSPropertyOp12
 70
     1
102
RTVSPropertyOp13
 70
     1
102
RTVSPropertyOp14
 70
     1
102
RTVSPropertyOp15
 70
     1
102
RTVSPropertyOp16
 70
     1
102
RTVSPropertyOp17
 70
     1
102
RTVSPropertyOp18
 70
     1
102
RTVSPropertyOp19
 70
     1
102
RTVSPropertyOp20
 70
     1
102
RTVSPropertyOp21
 70
     1
102
RTVSPropertyOp22
 70
     1
102
RTVSPropertyOp23
 70
     1
102
RTVSPropertyOp24
 70
     1
102
RTVSPropertyOp25
 70
     1
102
RTVSPropertyOp26
 70
     1
102
RTVSPropertyOp27
 70
     1
102
RTVSPropertyOp28
 70
     1
102
RTVSPropertyOp29
 70
     1
102
RTVSPropertyOp30
 70
     1
102
RTVSPropertyOp31
 70
     1
102
RTVSPropertyOp32
 70
     1
  0
XRECORD
  5
2955
102
{ACAD_REACTORS
330
2954
102
}
330
2954
100
AcDbXrecord
280
     1
102
RTVSPropertyOp0
 70
     1
102
RTVSPropertyOp1
 70
     1
102
RTVSPropertyOp2
 70
     1
102
RTVSPropertyOp3
 70
     1
102
RTVSPropertyOp4
 70
     1
102
RTVSPropertyOp5
 70
     1
102
RTVSPropertyOp6
 70
     1
102
RTVSPropertyOp7
 70
     1
102
RTVSPropertyOp8
 70
     1
102
RTVSPropertyOp9
 70
     1
102
RTVSPropertyOp10
 70
     1
102
RTVSPropertyOp11
 70
     1
102
RTVSPropertyOp12
 70
     1
102
RTVSPropertyOp13
 70
     1
102
RTVSPropertyOp14
 70
     1
102
RTVSPropertyOp15
 70
     1
102
RTVSPropertyOp16
 70
     1
102
RTVSPropertyOp17
 70
     1
102
RTVSPropertyOp18
 70
     1
102
RTVSPropertyOp19
 70
     1
102
RTVSPropertyOp20
 70
     1
102
RTVSPropertyOp21
 70
     1
102
RTVSPropertyOp22
 70
     1
102
RTVSPropertyOp23
 70
     1
102
RTVSPropertyOp24
 70
     1
102
RTVSPropertyOp25
 70
     1
102
RTVSPropertyOp26
 70
     1
102
RTVSPropertyOp27
 70
     1
102
RTVSPropertyOp28
 70
     1
102
RTVSPropertyOp29
 70
     1
102
RTVSPropertyOp30
 70
     1
102
RTVSPropertyOp31
 70
     1
102
RTVSPropertyOp32
 70
     1
  0
ENDSEC
  0
EOF
